  0
SECTION
  2
HEADER
  9
$ACADVER
  1
AC1012
  9
$DWGCODEPAGE
  3
ansi_932
  9
$INSBASE
 10
0.0
 20
0.0
 30
0.0
  9
$EXTMIN
 10
0.0
 20
0.0
 30
0.0
  9
$EXTMAX
 10
381.3
 20
235.05
 30
0.0
  9
$LIMMIN
 10
0.0
 20
0.0
  9
$LIMMAX
 10
381.3
 20
235.05
  9
$ORTHOMODE
 70
     0
  9
$REGENMODE
 70
     1
  9
$FILLMODE
 70
     1
  9
$QTEXTMODE
 70
     0
  9
$MIRRTEXT
 70
     1
  9
$DRAGMODE
 70
     2
  9
$LTSCALE
 40
1.0
  9
$OSMODE
 70
    37
  9
$ATTMODE
 70
     1
  9
$TEXTSIZE
 40
0.2
  9
$TRACEWID
 40
0.05
  9
$TEXTSTYLE
  7
STANDARD
  9
$CLAYER
  8
0
  9
$CELTYPE
  6
BYLAYER
  9
$CECOLOR
 62
   256
  9
$CELTSCALE
 40
1.0
  9
$DELOBJ
 70
     1
  9
$DISPSILH
 70
     0
  9
$DIMSCALE
 40
1.0
  9
$DIMASZ
 40
0.18
  9
$DIMEXO
 40
0.0625
  9
$DIMDLI
 40
0.38
  9
$DIMRND
 40
0.0
  9
$DIMDLE
 40
0.0
  9
$DIMEXE
 40
0.18
  9
$DIMTP
 40
0.0
  9
$DIMTM
 40
0.0
  9
$DIMTXT
 40
0.18
  9
$DIMCEN
 40
0.09
  9
$DIMTSZ
 40
0.0
  9
$DIMTOL
 70
     0
  9
$DIMLIM
 70
     0
  9
$DIMTIH
 70
     1
  9
$DIMTOH
 70
     1
  9
$DIMSE1
 70
     0
  9
$DIMSE2
 70
     0
  9
$DIMTAD
 70
     0
  9
$DIMZIN
 70
     0
  9
$DIMBLK
  1

  9
$DIMASO
 70
     1
  9
$DIMSHO
 70
     1
  9
$DIMPOST
  1

  9
$DIMAPOST
  1

  9
$DIMALT
 70
     0
  9
$DIMALTD
 70
     2
  9
$DIMALTF
 40
25.4
  9
$DIMLFAC
 40
1.0
  9
$DIMTOFL
 70
     0
  9
$DIMTVP
 40
0.0
  9
$DIMTIX
 70
     0
  9
$DIMSOXD
 70
     0
  9
$DIMSAH
 70
     0
  9
$DIMBLK1
  1

  9
$DIMBLK2
  1

  9
$DIMSTYLE
  2
STANDARD
  9
$DIMCLRD
 70
     0
  9
$DIMCLRE
 70
     0
  9
$DIMCLRT
 70
     0
  9
$DIMTFAC
 40
1.0
  9
$DIMGAP
 40
0.09
  9
$DIMJUST
 70
     0
  9
$DIMSD1
 70
     0
  9
$DIMSD2
 70
     0
  9
$DIMTOLJ
 70
     1
  9
$DIMTZIN
 70
     0
  9
$DIMALTZ
 70
     0
  9
$DIMALTTZ
 70
     0
  9
$DIMFIT
 70
     3
  9
$DIMUPT
 70
     0
  9
$DIMUNIT
 70
     2
  9
$DIMDEC
 70
     4
  9
$DIMTDEC
 70
     4
  9
$DIMALTU
 70
     2
  9
$DIMALTTD
 70
     2
  9
$DIMTXSTY
  7
STANDARD
  9
$DIMAUNIT
 70
     0
  9
$LUNITS
 70
     2
  9
$LUPREC
 70
     4
  9
$SKETCHINC
 40
0.1
  9
$FILLETRAD
 40
0.5
  9
$AUNITS
 70
     0
  9
$AUPREC
 70
     0
  9
$MENU
  1
.
  9
$ELEVATION
 40
0.0
  9
$PELEVATION
 40
0.0
  9
$THICKNESS
 40
0.0
  9
$LIMCHECK
 70
     0
  9
$CHAMFERA
 40
0.5
  9
$CHAMFERB
 40
0.5
  9
$CHAMFERC
 40
1.0
  9
$CHAMFERD
 40
0.0
  9
$SKPOLY
 70
     0
  9
$TDCREATE
 40
2454139.868229167
  9
$TDUPDATE
 40
2454139.868229167
  9
$TDINDWG
 40
0.0000000116
  9
$TDUSRTIMER
 40
0.0000000116
  9
$USRTIMER
 70
     1
  9
$ANGBASE
 50
0.0
  9
$ANGDIR
 70
     0
  9
$PDMODE
 70
     0
  9
$PDSIZE
 40
0.0
  9
$PLINEWID
 40
0.0
  9
$COORDS
 70
     1
  9
$SPLFRAME
 70
     0
  9
$SPLINETYPE
 70
     6
  9
$SPLINESEGS
 70
     8
  9
$ATTDIA
 70
     0
  9
$ATTREQ
 70
     1
  9
$HANDLING
 70
     1
  9
$HANDSEED
  5
248
  9
$SURFTAB1
 70
     6
  9
$SURFTAB2
 70
     6
  9
$SURFTYPE
 70
     6
  9
$SURFU
 70
     6
  9
$SURFV
 70
     6
  9
$UCSNAME
  2

  9
$UCSORG
 10
0.0
 20
0.0
 30
0.0
  9
$UCSXDIR
 10
1.0
 20
0.0
 30
0.0
  9
$UCSYDIR
 10
0.0
 20
1.0
 30
0.0
  9
$PUCSNAME
  2

  9
$PUCSORG
 10
0.0
 20
0.0
 30
0.0
  9
$PUCSXDIR
 10
1.0
 20
0.0
 30
0.0
  9
$PUCSYDIR
 10
0.0
 20
1.0
 30
0.0
  9
$USERI1
 70
     0
  9
$USERI2
 70
     0
  9
$USERI3
 70
     0
  9
$USERI4
 70
     0
  9
$USERI5
 70
     0
  9
$USERR1
 40
0.0
  9
$USERR2
 40
0.0
  9
$USERR3
 40
0.0
  9
$USERR4
 40
0.0
  9
$USERR5
 40
0.0
  9
$WORLDVIEW
 70
     1
  9
$SHADEDGE
 70
     3
  9
$SHADEDIF
 70
    70
  9
$TILEMODE
 70
     1
  9
$MAXACTVP
 70
    64
  9
$PINSBASE
 10
0.0
 20
0.0
 30
0.0
  9
$PLIMCHECK
 70
     0
  9
$PEXTMIN
 10
1.000000000000000E+20
 20
1.000000000000000E+20
 30
1.000000000000000E+20
  9
$PEXTMAX
 10
-1.000000000000000E+20
 20
-1.000000000000000E+20
 30
-1.000000000000000E+20
  9
$PLIMMIN
 10
0.0
 20
0.0
  9
$PLIMMAX
 10
12.0
 20
9.0
  9
$UNITMODE
 70
     0
  9
$VISRETAIN
 70
     1
  9
$PLINEGEN
 70
     0
  9
$PSLTSCALE
 70
     1
  9
$TREEDEPTH
 70
  3020
  9
$PICKSTYLE
 70
     1
  9
$CMLSTYLE
  2
STANDARD
  9
$CMLJUST
 70
     0
  9
$CMLSCALE
 40
1.0
  9
$SAVEIMAGES
 70
     1
  0
ENDSEC
  0
SECTION
  2
CLASSES
  0
CLASS
  1
ACDBDICTIONARYWDFLT
  2
AcDbDictionaryWithDefault
  3
ObjectDBX Classes
 90
    32768
280
     0
281
     0
  0
CLASS
  1
XRECORD
  2
AcDbXrecord
  3
AutoCAD 2000
 90
    32768
280
     0
281
     0
  0
CLASS
  1
LWPOLYLINE
  2
AcDbPolyline
  3
AutoCAD 2000
 90
    32768
280
     0
281
     1
  0
CLASS
  1
HATCH
  2
AcDbHatch
  3
AutoCAD 2000
 90
    32768
280
     0
281
     1
  0
CLASS
  1
ACDBPLACEHOLDER
  2
AcDbPlaceHolder
  3
ObjectDBX Classes
 90
        0
280
     0
281
     0
  0
CLASS
  1
LAYOUT
  2
AcDbLayout
  3
ObjectDBX Classes
 90
        0
280
     0
281
     0
  0
ENDSEC
  0
SECTION
  2
TABLES
  0
TABLE
  2
VPORT
  5
8
330
0
100
AcDbSymbolTable
 70
     1
  0
VPORT
  5
29
102
{ACAD_XDICTIONARY
360
246
102
}
330
8
100
AcDbSymbolTableRecord
100
AcDbViewportTableRecord
  2
*ACTIVE
 70
     0
 10
0.0
 20
0.0
 11
1.0
 21
1.0
 12
0.0
 22
0.0
 13
0.0
 23
0.0
 14
0.5
 24
0.5
 15
0.5
 25
0.5
 16
0.0
 26
0.0
 36
1.0
 17
210.7
 27
150.0
 37
0.0
 40
173.502
 41
2.005878894767783
 42
50.0
 43
0.0
 44
0.0
 50
0.0
 51
0.0
 71
     0
 72
   100
 73
     1
 74
     3
 75
     0
 76
     0
 77
     0
 78
     0
  0
ENDTAB
  0
TABLE
  2
LTYPE
  5
5
330
0
100
AcDbSymbolTable
 70
     1
  0
LTYPE
  5
14
330
5
100
AcDbSymbolTableRecord
100
AcDbLinetypeTableRecord
  2
BYBLOCK
 70
     0
  3

 72
    65
 73
     0
 40
0.0
  0
LTYPE
  5
15
330
5
100
AcDbSymbolTableRecord
100
AcDbLinetypeTableRecord
  2
BYLAYER
 70
     0
  3

 72
    65
 73
     0
 40
0.0
  0
LTYPE
  5
16
330
5
100
AcDbSymbolTableRecord
100
AcDbLinetypeTableRecord
  2
CONTINUOUS
 70
     0
  3
Solid line
 72
    65
 73
     0
 40
0.0
  0
ENDTAB
  0
TABLE
  2
LAYER
  5
2
330
0
100
AcDbSymbolTable
 70
     3
  0
LAYER
  5
10
330
2
100
AcDbSymbolTableRecord
100
AcDbLayerTableRecord
  2
0
 70
     0
 62
     7
  6
CONTINUOUS
  0
LAYER
  5
63
330
2
100
AcDbSymbolTableRecord
100
AcDbLayerTableRecord
  2
新しいレイヤ_1
 70
     0
 62
     7
  6
CONTINUOUS
  0
LAYER
  5
CE
330
2
100
AcDbSymbolTableRecord
100
AcDbLayerTableRecord
  2
DEFPOINTS
 70
     0
 62
     7
  6
CONTINUOUS
  0
ENDTAB
  0
TABLE
  2
STYLE
  5
3
330
0
100
AcDbSymbolTable
 70
     3
  0
STYLE
  5
11
330
3
100
AcDbSymbolTableRecord
100
AcDbTextStyleTableRecord
  2
STANDARD
 70
     0
 40
0.0
 41
1.0
 50
0.0
 71
     0
 42
0.2
  3
txt.shx
  4
extfont
  0
STYLE
  5
64
330
3
100
AcDbSymbolTableRecord
100
AcDbTextStyleTableRecord
  2
VERTICAL
 70
     4
 40
0.0
 41
1.0
 50
0.0
 71
     0
 42
0.2
  3
txt.shx
  4
extfont
  0
STYLE
  5
65
330
3
100
AcDbSymbolTableRecord
100
AcDbTextStyleTableRecord
  2
VERTICAL_MS_GOTHIC
 70
     0
 40
0.0
 41
1.0
 50
0.0
 71
     0
 42
0.2
  3
MS Gothic.ttf
  4

1001
ACAD
1000
@ＭＳ ゴシック
1071
    32817
  0
ENDTAB
  0
TABLE
  2
VIEW
  5
6
330
0
100
AcDbSymbolTable
 70
     0
  0
ENDTAB
  0
TABLE
  2
UCS
  5
7
330
0
100
AcDbSymbolTable
 70
     0
  0
ENDTAB
  0
TABLE
  2
APPID
  5
9
330
0
100
AcDbSymbolTable
 70
     2
  0
APPID
  5
12
330
9
100
AcDbSymbolTableRecord
100
AcDbRegAppTableRecord
  2
ACAD
 70
     0
  0
APPID
  5
62
330
9
100
AcDbSymbolTableRecord
100
AcDbRegAppTableRecord
  2
DJ__
 70
     0
  0
ENDTAB
  0
TABLE
  2
DIMSTYLE
  5
A
330
0
100
AcDbSymbolTable
 70
     1
  0
DIMSTYLE
105
27
102
{ACAD_REACTORS
330
CD
330
DB
330
E8
330
F5
330
104
330
113
330
122
330
12F
330
13F
330
14F
330
15A
330
167
330
176
330
186
330
194
330
1A2
330
1B1
330
1BE
330
1CD
330
1DC
330
1EB
330
1FB
330
208
330
220
330
230
330
23F
102
}
330
A
100
AcDbSymbolTableRecord
100
AcDbDimStyleTableRecord
  2
STANDARD
 70
     0
  3

  4

  5

  6

  7

 40
1.0
 41
0.18
 42
0.0625
 43
0.38
 44
0.18
 45
0.0
 46
0.0
 47
0.0
 48
0.0
140
0.18
141
0.09
142
0.0
143
25.4
144
1.0
145
0.0
146
1.0
147
0.09
 71
     0
 72
     0
 73
     1
 74
     1
 75
     0
 76
     0
 77
     0
 78
     0
170
     0
171
     2
172
     0
173
     0
174
     0
175
     0
176
     0
177
     0
178
     0
270
     2
271
     4
272
     4
273
     2
274
     2
340
11
275
     0
280
     0
281
     0
282
     0
283
     1
284
     0
285
     0
286
     0
287
     3
288
     0
  0
ENDTAB
  0
TABLE
  2
BLOCK_RECORD
  5
1
330
0
100
AcDbSymbolTable
 70
    39
  0
BLOCK_RECORD
  5
1F
330
1
100
AcDbSymbolTableRecord
100
AcDbBlockTableRecord
  2
*MODEL_SPACE
  0
BLOCK_RECORD
  5
1B
330
1
100
AcDbSymbolTableRecord
100
AcDbBlockTableRecord
  2
*PAPER_SPACE
  0
BLOCK_RECORD
  5
2A
330
1
100
AcDbSymbolTableRecord
100
AcDbBlockTableRecord
  2
_CLOSEDBLANK
  0
BLOCK_RECORD
  5
30
330
1
100
AcDbSymbolTableRecord
100
AcDbBlockTableRecord
  2
_BOXBLANK
  0
BLOCK_RECORD
  5
38
330
1
100
AcDbSymbolTableRecord
100
AcDbBlockTableRecord
  2
_DOTBLANK
  0
BLOCK_RECORD
  5
3D
330
1
100
AcDbSymbolTableRecord
100
AcDbBlockTableRecord
  2
_ORIGIN
  0
BLOCK_RECORD
  5
42
330
1
100
AcDbSymbolTableRecord
100
AcDbBlockTableRecord
  2
_DOT
  0
BLOCK_RECORD
  5
47
330
1
100
AcDbSymbolTableRecord
100
AcDbBlockTableRecord
  2
_INTEGRAL
  0
BLOCK_RECORD
  5
4C
330
1
100
AcDbSymbolTableRecord
100
AcDbBlockTableRecord
  2
_OPEN30
  0
BLOCK_RECORD
  5
52
330
1
100
AcDbSymbolTableRecord
100
AcDbBlockTableRecord
  2
_OBLIQUE
  0
BLOCK_RECORD
  5
56
330
1
100
AcDbSymbolTableRecord
100
AcDbBlockTableRecord
  2
_CLOSED
  0
BLOCK_RECORD
  5
5D
330
1
100
AcDbSymbolTableRecord
100
AcDbBlockTableRecord
  2
_BOXFILLED
  0
BLOCK_RECORD
  5
66
330
1
100
AcDbSymbolTableRecord
100
AcDbBlockTableRecord
  2
__侃讃_皃1
  0
BLOCK_RECORD
  5
6D
330
1
100
AcDbSymbolTableRecord
100
AcDbBlockTableRecord
  2
__侃讃_皃2
  0
BLOCK_RECORD
  5
C6
330
1
100
AcDbSymbolTableRecord
100
AcDbBlockTableRecord
  2
*D113
  0
BLOCK_RECORD
  5
D4
330
1
100
AcDbSymbolTableRecord
100
AcDbBlockTableRecord
  2
*D214
  0
BLOCK_RECORD
  5
E1
330
1
100
AcDbSymbolTableRecord
100
AcDbBlockTableRecord
  2
*D315
  0
BLOCK_RECORD
  5
EE
330
1
100
AcDbSymbolTableRecord
100
AcDbBlockTableRecord
  2
*D416
  0
BLOCK_RECORD
  5
FB
330
1
100
AcDbSymbolTableRecord
100
AcDbBlockTableRecord
  2
*D517
  0
BLOCK_RECORD
  5
10A
330
1
100
AcDbSymbolTableRecord
100
AcDbBlockTableRecord
  2
*D618
  0
BLOCK_RECORD
  5
119
330
1
100
AcDbSymbolTableRecord
100
AcDbBlockTableRecord
  2
*D719
  0
BLOCK_RECORD
  5
128
330
1
100
AcDbSymbolTableRecord
100
AcDbBlockTableRecord
  2
*D820
  0
BLOCK_RECORD
  5
136
330
1
100
AcDbSymbolTableRecord
100
AcDbBlockTableRecord
  2
*D921
  0
BLOCK_RECORD
  5
146
330
1
100
AcDbSymbolTableRecord
100
AcDbBlockTableRecord
  2
*D1022
  0
BLOCK_RECORD
  5
153
330
1
100
AcDbSymbolTableRecord
100
AcDbBlockTableRecord
  2
*D1123
  0
BLOCK_RECORD
  5
160
330
1
100
AcDbSymbolTableRecord
100
AcDbBlockTableRecord
  2
*D1224
  0
BLOCK_RECORD
  5
16D
330
1
100
AcDbSymbolTableRecord
100
AcDbBlockTableRecord
  2
*D1325
  0
BLOCK_RECORD
  5
17D
330
1
100
AcDbSymbolTableRecord
100
AcDbBlockTableRecord
  2
*D1426
  0
BLOCK_RECORD
  5
18D
330
1
100
AcDbSymbolTableRecord
100
AcDbBlockTableRecord
  2
*D1527
  0
BLOCK_RECORD
  5
199
330
1
100
AcDbSymbolTableRecord
100
AcDbBlockTableRecord
  2
*D1628
  0
BLOCK_RECORD
  5
1A8
330
1
100
AcDbSymbolTableRecord
100
AcDbBlockTableRecord
  2
*D1729
  0
BLOCK_RECORD
  5
1B7
330
1
100
AcDbSymbolTableRecord
100
AcDbBlockTableRecord
  2
*D1830
  0
BLOCK_RECORD
  5
1C4
330
1
100
AcDbSymbolTableRecord
100
AcDbBlockTableRecord
  2
*D1931
  0
BLOCK_RECORD
  5
1D3
330
1
100
AcDbSymbolTableRecord
100
AcDbBlockTableRecord
  2
*D2032
  0
BLOCK_RECORD
  5
1E2
330
1
100
AcDbSymbolTableRecord
100
AcDbBlockTableRecord
  2
*D2133
  0
BLOCK_RECORD
  5
1F2
330
1
100
AcDbSymbolTableRecord
100
AcDbBlockTableRecord
  2
*D2234
  0
BLOCK_RECORD
  5
201
330
1
100
AcDbSymbolTableRecord
100
AcDbBlockTableRecord
  2
*D2335
  0
BLOCK_RECORD
  5
217
330
1
100
AcDbSymbolTableRecord
100
AcDbBlockTableRecord
  2
*D2436
  0
BLOCK_RECORD
  5
227
330
1
100
AcDbSymbolTableRecord
100
AcDbBlockTableRecord
  2
*D2537
  0
BLOCK_RECORD
  5
236
330
1
100
AcDbSymbolTableRecord
100
AcDbBlockTableRecord
  2
*D2638
  0
ENDTAB
  0
ENDSEC
  0
SECTION
  2
BLOCKS
  0
BLOCK
  5
20
330
1F
100
AcDbEntity
  8
0
100
AcDbBlockBegin
  2
*MODEL_SPACE
 70
     0
 71
     0
 10
0.0
 20
0.0
 30
0.0
  3
*MODEL_SPACE
  1

  0
ENDBLK
  5
21
330
1F
100
AcDbEntity
  8
0
100
AcDbBlockEnd
  0
BLOCK
  5
1C
330
1B
100
AcDbEntity
 67
     1
  8
0
100
AcDbBlockBegin
  2
*PAPER_SPACE
 70
     0
 71
     0
 10
0.0
 20
0.0
 30
0.0
  3
*PAPER_SPACE
  1

  0
ENDBLK
  5
1D
330
1B
100
AcDbEntity
 67
     1
  8
0
100
AcDbBlockEnd
  0
BLOCK
  5
2B
330
2A
100
AcDbEntity
  8
0
100
AcDbBlockBegin
  2
_CLOSEDBLANK
 70
     0
 71
     0
 10
0.0
 20
0.0
 30
0.0
  3
_CLOSEDBLANK
  1

  0
LINE
  5
2D
330
2A
100
AcDbEntity
  8
0
  6
BYBLOCK
 62
     0
100
AcDbLine
 10
-1.0
 20
0.166667
 30
0.0
 11
0.0
 21
0.0
 31
0.0
  0
LINE
  5
2E
330
2A
100
AcDbEntity
  8
0
  6
BYBLOCK
 62
     0
100
AcDbLine
 10
0.0
 20
0.0
 30
0.0
 11
-1.0
 21
-0.166667
 31
0.0
  0
LINE
  5
2F
330
2A
100
AcDbEntity
  8
0
  6
BYBLOCK
 62
     0
100
AcDbLine
 10
-1.0
 20
0.166667
 30
0.0
 11
-1.0
 21
-0.166667
 31
0.0
  0
ENDBLK
  5
2C
330
2A
100
AcDbEntity
  8
0
100
AcDbBlockEnd
  0
BLOCK
  5
31
330
30
100
AcDbEntity
  8
0
100
AcDbBlockBegin
  2
_BOXBLANK
 70
     0
 71
     0
 10
0.0
 20
0.0
 30
0.0
  3
_BOXBLANK
  1

  0
LINE
  5
33
330
30
100
AcDbEntity
  8
0
  6
BYBLOCK
 62
     0
100
AcDbLine
 10
-0.5
 20
-0.5
 30
0.0
 11
0.5
 21
-0.5
 31
0.0
  0
LINE
  5
34
330
30
100
AcDbEntity
  8
0
  6
BYBLOCK
 62
     0
100
AcDbLine
 10
0.5
 20
-0.5
 30
0.0
 11
0.5
 21
0.5
 31
0.0
  0
LINE
  5
35
330
30
100
AcDbEntity
  8
0
  6
BYBLOCK
 62
     0
100
AcDbLine
 10
0.5
 20
0.5
 30
0.0
 11
-0.5
 21
0.5
 31
0.0
  0
LINE
  5
36
330
30
100
AcDbEntity
  8
0
  6
BYBLOCK
 62
     0
100
AcDbLine
 10
-0.5
 20
0.5
 30
0.0
 11
-0.5
 21
-0.5
 31
0.0
  0
LINE
  5
37
330
30
100
AcDbEntity
  8
0
  6
BYBLOCK
 62
     0
100
AcDbLine
 10
-0.5
 20
0.0
 30
0.0
 11
-1.0
 21
0.0
 31
0.0
  0
ENDBLK
  5
32
330
30
100
AcDbEntity
  8
0
100
AcDbBlockEnd
  0
BLOCK
  5
39
330
38
100
AcDbEntity
  8
0
100
AcDbBlockBegin
  2
_DOTBLANK
 70
     0
 71
     0
 10
0.0
 20
0.0
 30
0.0
  3
_DOTBLANK
  1

  0
CIRCLE
  5
3B
330
38
100
AcDbEntity
  8
0
  6
BYBLOCK
 62
     0
100
AcDbCircle
 10
0.0
 20
0.0
 30
0.0
 40
0.5
  0
LINE
  5
3C
330
38
100
AcDbEntity
  8
0
  6
BYBLOCK
 62
     0
100
AcDbLine
 10
-0.5
 20
0.0
 30
0.0
 11
-1.0
 21
0.0
 31
0.0
  0
ENDBLK
  5
3A
330
38
100
AcDbEntity
  8
0
100
AcDbBlockEnd
  0
BLOCK
  5
3E
330
3D
100
AcDbEntity
  8
0
100
AcDbBlockBegin
  2
_ORIGIN
 70
     0
 71
     0
 10
0.0
 20
0.0
 30
0.0
  3
_ORIGIN
  1

  0
CIRCLE
  5
40
330
3D
100
AcDbEntity
  8
0
  6
BYBLOCK
 62
     0
100
AcDbCircle
 10
0.0
 20
0.0
 30
0.0
 40
0.5
  0
LINE
  5
41
330
3D
100
AcDbEntity
  8
0
  6
BYBLOCK
 62
     0
100
AcDbLine
 10
0.0
 20
0.0
 30
0.0
 11
-1.0
 21
0.0
 31
0.0
  0
ENDBLK
  5
3F
330
3D
100
AcDbEntity
  8
0
100
AcDbBlockEnd
  0
BLOCK
  5
43
330
42
100
AcDbEntity
  8
0
100
AcDbBlockBegin
  2
_DOT
 70
     0
 71
     0
 10
0.0
 20
0.0
 30
0.0
  3
_DOT
  1

  0
POLYLINE
  5
45
330
42
100
AcDbEntity
  8
0
  6
BYBLOCK
 62
     0
100
AcDb2dPolyline
 66
     1
 10
0.0
 20
0.0
 30
0.0
 70
     1
 40
0.5
 41
0.5
  0
VERTEX
  5
244
330
45
100
AcDbEntity
  8
0
  6
BYBLOCK
 62
     0
100
AcDbVertex
100
AcDb2dVertex
 10
-0.25
 20
0.0
 30
0.0
 42
1.0
  0
VERTEX
  5
245
330
45
100
AcDbEntity
  8
0
  6
BYBLOCK
 62
     0
100
AcDbVertex
100
AcDb2dVertex
 10
0.25
 20
0.0
 30
0.0
 42
1.0
  0
SEQEND
  5
243
330
45
100
AcDbEntity
  8
0
  6
BYBLOCK
 62
     0
  0
LINE
  5
46
330
42
100
AcDbEntity
  8
0
  6
BYBLOCK
 62
     0
100
AcDbLine
 10
-0.5
 20
0.0
 30
0.0
 11
-1.0
 21
0.0
 31
0.0
  0
ENDBLK
  5
44
330
42
100
AcDbEntity
  8
0
100
AcDbBlockEnd
  0
BLOCK
  5
48
330
47
100
AcDbEntity
  8
0
100
AcDbBlockBegin
  2
_INTEGRAL
 70
     0
 71
     0
 10
0.0
 20
0.0
 30
0.0
  3
_INTEGRAL
  1

  0
ARC
  5
4A
330
47
100
AcDbEntity
  8
0
  6
BYBLOCK
 62
     0
100
AcDbCircle
 10
0.444888
 20
-0.091335
 30
0.0
 40
0.4541666700000001
100
AcDbArc
 50
102.0
 51
168.0
  0
ARC
  5
4B
330
47
100
AcDbEntity
  8
0
  6
BYBLOCK
 62
     0
100
AcDbCircle
 10
-0.444888
 20
0.091335
 30
0.0
 40
0.4541666700000001
100
AcDbArc
 50
281.9999999999999
 51
348.0
  0
ENDBLK
  5
49
330
47
100
AcDbEntity
  8
0
100
AcDbBlockEnd
  0
BLOCK
  5
4D
330
4C
100
AcDbEntity
  8
0
100
AcDbBlockBegin
  2
_OPEN30
 70
     0
 71
     0
 10
0.0
 20
0.0
 30
0.0
  3
_OPEN30
  1

  0
LINE
  5
4F
330
4C
100
AcDbEntity
  8
0
  6
BYBLOCK
 62
     0
100
AcDbLine
 10
-1.0
 20
0.267949
 30
0.0
 11
0.0
 21
0.0
 31
0.0
  0
LINE
  5
50
330
4C
100
AcDbEntity
  8
0
  6
BYBLOCK
 62
     0
100
AcDbLine
 10
0.0
 20
0.0
 30
0.0
 11
-1.0
 21
-0.267949
 31
0.0
  0
LINE
  5
51
330
4C
100
AcDbEntity
  8
0
  6
BYBLOCK
 62
     0
100
AcDbLine
 10
0.0
 20
0.0
 30
0.0
 11
-1.0
 21
0.0
 31
0.0
  0
ENDBLK
  5
4E
330
4C
100
AcDbEntity
  8
0
100
AcDbBlockEnd
  0
BLOCK
  5
53
330
52
100
AcDbEntity
  8
0
100
AcDbBlockBegin
  2
_OBLIQUE
 70
     0
 71
     0
 10
0.0
 20
0.0
 30
0.0
  3
_OBLIQUE
  1

  0
LINE
  5
55
330
52
100
AcDbEntity
  8
0
  6
BYBLOCK
 62
     0
100
AcDbLine
 10
-0.5
 20
-0.5
 30
0.0
 11
0.5
 21
0.5
 31
0.0
  0
ENDBLK
  5
54
330
52
100
AcDbEntity
  8
0
100
AcDbBlockEnd
  0
BLOCK
  5
57
330
56
100
AcDbEntity
  8
0
100
AcDbBlockBegin
  2
_CLOSED
 70
     0
 71
     0
 10
0.0
 20
0.0
 30
0.0
  3
_CLOSED
  1

  0
LINE
  5
59
330
56
100
AcDbEntity
  8
0
  6
BYBLOCK
 62
     0
100
AcDbLine
 10
-1.0
 20
0.166667
 30
0.0
 11
0.0
 21
0.0
 31
0.0
  0
LINE
  5
5A
330
56
100
AcDbEntity
  8
0
  6
BYBLOCK
 62
     0
100
AcDbLine
 10
0.0
 20
0.0
 30
0.0
 11
-1.0
 21
-0.166667
 31
0.0
  0
LINE
  5
5B
330
56
100
AcDbEntity
  8
0
  6
BYBLOCK
 62
     0
100
AcDbLine
 10
-1.0
 20
0.166667
 30
0.0
 11
-1.0
 21
-0.166667
 31
0.0
  0
LINE
  5
5C
330
56
100
AcDbEntity
  8
0
  6
BYBLOCK
 62
     0
100
AcDbLine
 10
0.0
 20
0.0
 30
0.0
 11
-1.0
 21
0.0
 31
0.0
  0
ENDBLK
  5
58
330
56
100
AcDbEntity
  8
0
100
AcDbBlockEnd
  0
BLOCK
  5
5E
330
5D
100
AcDbEntity
  8
0
100
AcDbBlockBegin
  2
_BOXFILLED
 70
     0
 71
     0
 10
0.0
 20
0.0
 30
0.0
  3
_BOXFILLED
  1

  0
SOLID
  5
60
330
5D
100
AcDbEntity
  8
0
  6
BYBLOCK
 62
     0
100
AcDbTrace
 10
-0.5
 20
0.5
 30
0.0
 11
0.5
 21
0.5
 31
0.0
 12
-0.5
 22
-0.5
 32
0.0
 13
0.5
 23
-0.5
 33
0.0
  0
LINE
  5
61
330
5D
100
AcDbEntity
  8
0
  6
BYBLOCK
 62
     0
100
AcDbLine
 10
-0.5
 20
0.0
 30
0.0
 11
-1.0
 21
0.0
 31
0.0
  0
ENDBLK
  5
5F
330
5D
100
AcDbEntity
  8
0
100
AcDbBlockEnd
  0
BLOCK
  5
67
330
66
100
AcDbEntity
  8
0
100
AcDbBlockBegin
  2
__侃讃_皃1
 70
     0
 71
     0
 10
0.0
 20
0.0
 30
0.0
  3
__侃讃_皃1
  1

  0
LINE
  5
69
330
66
100
AcDbEntity
  8
新しいレイヤ_1
100
AcDbLine
 10
133.75
 20
178.0
 30
0.0
 11
133.75
 21
180.685
 31
0.0
  0
ARC
  5
6A
330
66
100
AcDbEntity
  8
新しいレイヤ_1
100
AcDbCircle
 10
132.25
 20
180.685
 30
0.0
 40
1.499999999999991
100
AcDbArc
 50
0.0
 51
180.0000000000011
  0
LINE
  5
6B
330
66
100
AcDbEntity
  8
新しいレイヤ_1
100
AcDbLine
 10
130.75
 20
180.685
 30
0.0
 11
130.75
 21
178.0
 31
0.0
  0
LINE
  5
6C
330
66
100
AcDbEntity
  8
新しいレイヤ_1
100
AcDbLine
 10
130.75
 20
178.0
 30
0.0
 11
133.75
 21
178.0
 31
0.0
  0
ENDBLK
  5
68
330
66
100
AcDbEntity
  8
0
100
AcDbBlockEnd
  0
BLOCK
  5
6E
330
6D
100
AcDbEntity
  8
0
100
AcDbBlockBegin
  2
__侃讃_皃2
 70
     0
 71
     0
 10
0.0
 20
0.0
 30
0.0
  3
__侃讃_皃2
  1

  0
LINE
  5
70
330
6D
100
AcDbEntity
  8
新しいレイヤ_1
100
AcDbLine
 10
218.7
 20
178.0
 30
0.0
 11
218.7
 21
180.685
 31
0.0
  0
ARC
  5
71
330
6D
100
AcDbEntity
  8
新しいレイヤ_1
100
AcDbCircle
 10
217.2
 20
180.685
 30
0.0
 40
1.499999999999991
100
AcDbArc
 50
0.0
 51
180.0000000000011
  0
LINE
  5
72
330
6D
100
AcDbEntity
  8
新しいレイヤ_1
100
AcDbLine
 10
215.7
 20
180.685
 30
0.0
 11
215.7
 21
178.0
 31
0.0
  0
LINE
  5
73
330
6D
100
AcDbEntity
  8
新しいレイヤ_1
100
AcDbLine
 10
215.7
 20
178.0
 30
0.0
 11
218.7
 21
178.0
 31
0.0
  0
ENDBLK
  5
6F
330
6D
100
AcDbEntity
  8
0
100
AcDbBlockEnd
  0
BLOCK
  5
C7
330
C6
100
AcDbEntity
  8
0
100
AcDbBlockBegin
  2
*D113
 70
     1
 71
     0
 10
0.0
 20
0.0
 30
0.0
  3
*D113
  1

  0
LINE
  5
C9
330
C6
100
AcDbEntity
  8
新しいレイヤ_1
 62
     0
100
AcDbLine
 10
182.25
 20
177.685
 30
0.0
 11
196.8
 21
177.685
 31
0.0
  0
LINE
  5
CA
330
C6
100
AcDbEntity
  8
新しいレイヤ_1
 62
     0
100
AcDbLine
 10
182.25
 20
122.315
 30
0.0
 11
196.8
 21
122.315
 31
0.0
  0
LINE
  5
CB
330
C6
100
AcDbEntity
  8
新しいレイヤ_1
 62
     0
100
AcDbLine
 10
194.3
 20
174.3516666666667
 30
0.0
 11
194.3
 21
125.6483333333333
 31
0.0
  0
INSERT
  5
CC
330
C6
100
AcDbEntity
  8
新しいレイヤ_1
 62
     0
100
AcDbBlockReference
  2
_OPEN30
 10
194.3
 20
177.685
 30
0.0
 41
3.333333333333334
 42
3.333333333333334
 43
3.333333333333334
 50
90.0
  0
INSERT
  5
CF
330
C6
100
AcDbEntity
  8
新しいレイヤ_1
 62
     0
100
AcDbBlockReference
  2
_OPEN30
 10
194.3
 20
122.315
 30
0.0
 41
3.333333333333334
 42
3.333333333333334
 43
3.333333333333334
 50
270.0
  0
MTEXT
  5
D0
330
C6
100
AcDbEntity
  8
新しいレイヤ_1
 62
     0
100
AcDbMText
 10
195.569541199783
 20
150.0
 30
0.0
 40
1.539082399565885
 41
0.0
 71
     5
 72
     1
  1
55.37
 11
0.0
 21
1.0
 31
0.0
  0
POINT
  5
D1
330
C6
100
AcDbEntity
  8
DEFPOINTS
 62
     0
100
AcDbPoint
 10
181.75
 20
177.685
 30
0.0
  0
POINT
  5
D2
330
C6
100
AcDbEntity
  8
DEFPOINTS
 62
     0
100
AcDbPoint
 10
181.75
 20
122.315
 30
0.0
  0
POINT
  5
D3
330
C6
100
AcDbEntity
  8
DEFPOINTS
 62
     0
100
AcDbPoint
 10
194.3
 20
122.315
 30
0.0
  0
ENDBLK
  5
C8
330
C6
100
AcDbEntity
  8
0
100
AcDbBlockEnd
  0
BLOCK
  5
D5
330
D4
100
AcDbEntity
  8
0
100
AcDbBlockBegin
  2
*D214
 70
     1
 71
     0
 10
0.0
 20
0.0
 30
0.0
  3
*D214
  1

  0
LINE
  5
D7
330
D4
100
AcDbEntity
  8
新しいレイヤ_1
 62
     0
100
AcDbLine
 10
118.25
 20
121.815
 30
0.0
 11
118.25
 21
105.7
 31
0.0
  0
LINE
  5
D8
330
D4
100
AcDbEntity
  8
新しいレイヤ_1
 62
     0
100
AcDbLine
 10
181.75
 20
121.815
 30
0.0
 11
181.75
 21
105.7
 31
0.0
  0
LINE
  5
D9
330
D4
100
AcDbEntity
  8
新しいレイヤ_1
 62
     0
100
AcDbLine
 10
121.5833333333333
 20
108.2
 30
0.0
 11
178.4166666666667
 21
108.2
 31
0.0
  0
INSERT
  5
DA
330
D4
100
AcDbEntity
  8
新しいレイヤ_1
 62
     0
100
AcDbBlockReference
  2
_OPEN30
 10
118.25
 20
108.2
 30
0.0
 41
3.333333333333334
 42
3.333333333333334
 43
3.333333333333334
 50
180.0
  0
INSERT
  5
DC
330
D4
100
AcDbEntity
  8
新しいレイヤ_1
 62
     0
100
AcDbBlockReference
  2
_OPEN30
 10
181.75
 20
108.2
 30
0.0
 41
3.333333333333334
 42
3.333333333333334
 43
3.333333333333334
  0
MTEXT
  5
DD
330
D4
100
AcDbEntity
  8
新しいレイヤ_1
 62
     0
100
AcDbMText
 10
150.0
 20
109.4695411997829
 30
0.0
 40
1.539082399565885
 41
0.0
 71
     5
 72
     1
  1
63.50
  0
POINT
  5
DE
330
D4
100
AcDbEntity
  8
DEFPOINTS
 62
     0
100
AcDbPoint
 10
118.25
 20
122.315
 30
0.0
  0
POINT
  5
DF
330
D4
100
AcDbEntity
  8
DEFPOINTS
 62
     0
100
AcDbPoint
 10
181.75
 20
122.315
 30
0.0
  0
POINT
  5
E0
330
D4
100
AcDbEntity
  8
DEFPOINTS
 62
     0
100
AcDbPoint
 10
181.75
 20
108.2
 30
0.0
  0
ENDBLK
  5
D6
330
D4
100
AcDbEntity
  8
0
100
AcDbBlockEnd
  0
BLOCK
  5
E2
330
E1
100
AcDbEntity
  8
0
100
AcDbBlockBegin
  2
*D315
 70
     1
 71
     0
 10
0.0
 20
0.0
 30
0.0
  3
*D315
  1

  0
LINE
  5
E4
330
E1
100
AcDbEntity
  8
新しいレイヤ_1
 62
     0
100
AcDbLine
 10
120.81
 20
124.375
 30
0.0
 11
120.81
 21
109.4
 31
0.0
  0
LINE
  5
E5
330
E1
100
AcDbEntity
  8
新しいレイヤ_1
 62
     0
100
AcDbLine
 10
179.19
 20
124.375
 30
0.0
 11
179.19
 21
109.4
 31
0.0
  0
LINE
  5
E6
330
E1
100
AcDbEntity
  8
新しいレイヤ_1
 62
     0
100
AcDbLine
 10
124.1433333333333
 20
111.9
 30
0.0
 11
175.8566666666667
 21
111.9
 31
0.0
  0
INSERT
  5
E7
330
E1
100
AcDbEntity
  8
新しいレイヤ_1
 62
     0
100
AcDbBlockReference
  2
_OPEN30
 10
120.81
 20
111.9
 30
0.0
 41
3.333333333333334
 42
3.333333333333334
 43
3.333333333333334
 50
180.0
  0
INSERT
  5
E9
330
E1
100
AcDbEntity
  8
新しいレイヤ_1
 62
     0
100
AcDbBlockReference
  2
_OPEN30
 10
179.19
 20
111.9
 30
0.0
 41
3.333333333333334
 42
3.333333333333334
 43
3.333333333333334
  0
MTEXT
  5
EA
330
E1
100
AcDbEntity
  8
新しいレイヤ_1
 62
     0
100
AcDbMText
 10
150.0
 20
113.169541199783
 30
0.0
 40
1.539082399565885
 41
0.0
 71
     5
 72
     1
  1
58.38
  0
POINT
  5
EB
330
E1
100
AcDbEntity
  8
DEFPOINTS
 62
     0
100
AcDbPoint
 10
120.81
 20
124.875
 30
0.0
  0
POINT
  5
EC
330
E1
100
AcDbEntity
  8
DEFPOINTS
 62
     0
100
AcDbPoint
 10
179.19
 20
124.875
 30
0.0
  0
POINT
  5
ED
330
E1
100
AcDbEntity
  8
DEFPOINTS
 62
     0
100
AcDbPoint
 10
179.19
 20
111.9
 30
0.0
  0
ENDBLK
  5
E3
330
E1
100
AcDbEntity
  8
0
100
AcDbBlockEnd
  0
BLOCK
  5
EF
330
EE
100
AcDbEntity
  8
0
100
AcDbBlockBegin
  2
*D416
 70
     1
 71
     0
 10
0.0
 20
0.0
 30
0.0
  3
*D416
  1

  0
LINE
  5
F1
330
EE
100
AcDbEntity
  8
新しいレイヤ_1
 62
     0
100
AcDbLine
 10
179.69
 20
175.125
 30
0.0
 11
193.8
 21
175.125
 31
0.0
  0
LINE
  5
F2
330
EE
100
AcDbEntity
  8
新しいレイヤ_1
 62
     0
100
AcDbLine
 10
179.69
 20
124.875
 30
0.0
 11
193.8
 21
124.875
 31
0.0
  0
LINE
  5
F3
330
EE
100
AcDbEntity
  8
新しいレイヤ_1
 62
     0
100
AcDbLine
 10
191.3
 20
171.7916666666667
 30
0.0
 11
191.3
 21
128.2083333333333
 31
0.0
  0
INSERT
  5
F4
330
EE
100
AcDbEntity
  8
新しいレイヤ_1
 62
     0
100
AcDbBlockReference
  2
_OPEN30
 10
191.3
 20
175.125
 30
0.0
 41
3.333333333333334
 42
3.333333333333334
 43
3.333333333333334
 50
90.0
  0
INSERT
  5
F6
330
EE
100
AcDbEntity
  8
新しいレイヤ_1
 62
     0
100
AcDbBlockReference
  2
_OPEN30
 10
191.3
 20
124.875
 30
0.0
 41
3.333333333333334
 42
3.333333333333334
 43
3.333333333333334
 50
270.0
  0
MTEXT
  5
F7
330
EE
100
AcDbEntity
  8
新しいレイヤ_1
 62
     0
100
AcDbMText
 10
192.569541199783
 20
150.0
 30
0.0
 40
1.539082399565885
 41
0.0
 71
     5
 72
     1
  1
50.25
 11
0.0
 21
1.0
 31
0.0
  0
POINT
  5
F8
330
EE
100
AcDbEntity
  8
DEFPOINTS
 62
     0
100
AcDbPoint
 10
179.19
 20
175.125
 30
0.0
  0
POINT
  5
F9
330
EE
100
AcDbEntity
  8
DEFPOINTS
 62
     0
100
AcDbPoint
 10
179.19
 20
124.875
 30
0.0
  0
POINT
  5
FA
330
EE
100
AcDbEntity
  8
DEFPOINTS
 62
     0
100
AcDbPoint
 10
191.3
 20
124.875
 30
0.0
  0
ENDBLK
  5
F0
330
EE
100
AcDbEntity
  8
0
100
AcDbBlockEnd
  0
BLOCK
  5
FC
330
FB
100
AcDbEntity
  8
0
100
AcDbBlockBegin
  2
*D517
 70
     1
 71
     0
 10
0.0
 20
0.0
 30
0.0
  3
*D517
  1

  0
LINE
  5
FE
330
FB
100
AcDbEntity
  8
新しいレイヤ_1
 62
     0
100
AcDbLine
 10
175.35
 20
184.685
 30
0.0
 11
188.3875
 21
184.685
 31
0.0
  0
LINE
  5
FF
330
FB
100
AcDbEntity
  8
新しいレイヤ_1
 62
     0
100
AcDbLine
 10
175.35
 20
177.685
 30
0.0
 11
188.3875
 21
177.685
 31
0.0
  0
LINE
  5
100
330
FB
100
AcDbEntity
  8
新しいレイヤ_1
 62
     0
100
AcDbLine
 10
185.8875
 20
188.0183333333334
 30
0.0
 11
185.8875
 21
191.3516666666667
 31
0.0
  0
LINE
  5
101
330
FB
100
AcDbEntity
  8
新しいレイヤ_1
 62
     0
100
AcDbLine
 10
185.8875
 20
174.3516666666667
 30
0.0
 11
185.8875
 21
171.0183333333334
 31
0.0
  0
LINE
  5
102
330
FB
100
AcDbEntity
  8
新しいレイヤ_1
 62
     0
100
AcDbLine
 10
185.8875
 20
184.685
 30
0.0
 11
185.8875
 21
177.685
 31
0.0
  0
INSERT
  5
103
330
FB
100
AcDbEntity
  8
新しいレイヤ_1
 62
     0
100
AcDbBlockReference
  2
_OPEN30
 10
185.8875
 20
184.685
 30
0.0
 41
3.333333333333334
 42
3.333333333333334
 43
3.333333333333334
 50
270.0
  0
INSERT
  5
105
330
FB
100
AcDbEntity
  8
新しいレイヤ_1
 62
     0
100
AcDbBlockReference
  2
_OPEN30
 10
185.8875
 20
177.685
 30
0.0
 41
3.333333333333334
 42
3.333333333333334
 43
3.333333333333334
 50
90.0
  0
MTEXT
  5
106
330
FB
100
AcDbEntity
  8
新しいレイヤ_1
 62
     0
100
AcDbMText
 10
187.1570411997829
 20
181.185
 30
0.0
 40
1.539082399565885
 41
0.0
 71
     5
 72
     1
  1
7.00
 11
0.0
 21
1.0
 31
0.0
  0
POINT
  5
107
330
FB
100
AcDbEntity
  8
DEFPOINTS
 62
     0
100
AcDbPoint
 10
174.85
 20
184.685
 30
0.0
  0
POINT
  5
108
330
FB
100
AcDbEntity
  8
DEFPOINTS
 62
     0
100
AcDbPoint
 10
174.85
 20
177.685
 30
0.0
  0
POINT
  5
109
330
FB
100
AcDbEntity
  8
DEFPOINTS
 62
     0
100
AcDbPoint
 10
185.8875
 20
177.685
 30
0.0
  0
ENDBLK
  5
FD
330
FB
100
AcDbEntity
  8
0
100
AcDbBlockEnd
  0
BLOCK
  5
10B
330
10A
100
AcDbEntity
  8
0
100
AcDbBlockBegin
  2
*D618
 70
     1
 71
     0
 10
0.0
 20
0.0
 30
0.0
  3
*D618
  1

  0
LINE
  5
10D
330
10A
100
AcDbEntity
  8
新しいレイヤ_1
 62
     0
100
AcDbLine
 10
174.85
 20
185.185
 30
0.0
 11
174.85
 21
190.8
 31
0.0
  0
LINE
  5
10E
330
10A
100
AcDbEntity
  8
新しいレイヤ_1
 62
     0
100
AcDbLine
 10
169.85
 20
185.185
 30
0.0
 11
169.85
 21
190.8
 31
0.0
  0
LINE
  5
10F
330
10A
100
AcDbEntity
  8
新しいレイヤ_1
 62
     0
100
AcDbLine
 10
178.1833333333333
 20
188.3
 30
0.0
 11
181.5166666666667
 21
188.3
 31
0.0
  0
LINE
  5
110
330
10A
100
AcDbEntity
  8
新しいレイヤ_1
 62
     0
100
AcDbLine
 10
174.85
 20
188.3
 30
0.0
 11
169.85
 21
188.3
 31
0.0
  0
LINE
  5
111
330
10A
100
AcDbEntity
  8
新しいレイヤ_1
 62
     0
100
AcDbLine
 10
166.5166666666667
 20
188.3
 30
0.0
 11
159.85
 21
188.3
 31
0.0
  0
INSERT
  5
112
330
10A
100
AcDbEntity
  8
新しいレイヤ_1
 62
     0
100
AcDbBlockReference
  2
_OPEN30
 10
174.85
 20
188.3
 30
0.0
 41
3.333333333333334
 42
3.333333333333334
 43
3.333333333333334
 50
180.0
  0
INSERT
  5
114
330
10A
100
AcDbEntity
  8
新しいレイヤ_1
 62
     0
100
AcDbBlockReference
  2
_OPEN30
 10
169.85
 20
188.3
 30
0.0
 41
3.333333333333334
 42
3.333333333333334
 43
3.333333333333334
  0
MTEXT
  5
115
330
10A
100
AcDbEntity
  8
新しいレイヤ_1
 62
     0
100
AcDbMText
 10
157.0047315816139
 20
188.3
 30
0.0
 40
1.539082399565885
 41
0.0
 71
     5
 72
     1
  1
5.00
  0
POINT
  5
116
330
10A
100
AcDbEntity
  8
DEFPOINTS
 62
     0
100
AcDbPoint
 10
174.85
 20
184.685
 30
0.0
  0
POINT
  5
117
330
10A
100
AcDbEntity
  8
DEFPOINTS
 62
     0
100
AcDbPoint
 10
169.85
 20
184.685
 30
0.0
  0
POINT
  5
118
330
10A
100
AcDbEntity
  8
DEFPOINTS
 62
     0
100
AcDbPoint
 10
169.85
 20
188.3
 30
0.0
  0
ENDBLK
  5
10C
330
10A
100
AcDbEntity
  8
0
100
AcDbBlockEnd
  0
BLOCK
  5
11A
330
119
100
AcDbEntity
  8
0
100
AcDbBlockBegin
  2
*D719
 70
     1
 71
     0
 10
0.0
 20
0.0
 30
0.0
  3
*D719
  1

  0
LINE
  5
11C
330
119
100
AcDbEntity
  8
新しいレイヤ_1
 62
     0
100
AcDbLine
 10
133.75
 20
178.5
 30
0.0
 11
133.75
 21
193.2
 31
0.0
  0
LINE
  5
11D
330
119
100
AcDbEntity
  8
新しいレイヤ_1
 62
     0
100
AcDbLine
 10
130.75
 20
178.5
 30
0.0
 11
130.75
 21
193.2
 31
0.0
  0
LINE
  5
11E
330
119
100
AcDbEntity
  8
新しいレイヤ_1
 62
     0
100
AcDbLine
 10
137.0833333333333
 20
190.7
 30
0.0
 11
140.4166666666667
 21
190.7
 31
0.0
  0
LINE
  5
11F
330
119
100
AcDbEntity
  8
新しいレイヤ_1
 62
     0
100
AcDbLine
 10
133.75
 20
190.7
 30
0.0
 11
130.75
 21
190.7
 31
0.0
  0
LINE
  5
120
330
119
100
AcDbEntity
  8
新しいレイヤ_1
 62
     0
100
AcDbLine
 10
127.4166666666667
 20
190.7
 30
0.0
 11
120.75
 21
190.7
 31
0.0
  0
INSERT
  5
121
330
119
100
AcDbEntity
  8
新しいレイヤ_1
 62
     0
100
AcDbBlockReference
  2
_OPEN30
 10
133.75
 20
190.7
 30
0.0
 41
3.333333333333334
 42
3.333333333333334
 43
3.333333333333334
 50
180.0
  0
INSERT
  5
123
330
119
100
AcDbEntity
  8
新しいレイヤ_1
 62
     0
100
AcDbBlockReference
  2
_OPEN30
 10
130.75
 20
190.7
 30
0.0
 41
3.333333333333334
 42
3.333333333333334
 43
3.333333333333334
  0
MTEXT
  5
124
330
119
100
AcDbEntity
  8
新しいレイヤ_1
 62
     0
100
AcDbMText
 10
117.9047315816139
 20
190.7
 30
0.0
 40
1.539082399565885
 41
0.0
 71
     5
 72
     1
  1
3.00
  0
POINT
  5
125
330
119
100
AcDbEntity
  8
DEFPOINTS
 62
     0
100
AcDbPoint
 10
133.75
 20
178.0
 30
0.0
  0
POINT
  5
126
330
119
100
AcDbEntity
  8
DEFPOINTS
 62
     0
100
AcDbPoint
 10
130.75
 20
178.0
 30
0.0
  0
POINT
  5
127
330
119
100
AcDbEntity
  8
DEFPOINTS
 62
     0
100
AcDbPoint
 10
130.75
 20
190.7
 30
0.0
  0
ENDBLK
  5
11B
330
119
100
AcDbEntity
  8
0
100
AcDbBlockEnd
  0
BLOCK
  5
129
330
128
100
AcDbEntity
  8
0
100
AcDbBlockBegin
  2
*D820
 70
     1
 71
     0
 10
0.0
 20
0.0
 30
0.0
  3
*D820
  1

  0
LINE
  5
12B
330
128
100
AcDbEntity
  8
新しいレイヤ_1
 62
     0
100
AcDbLine
 10
132.25
 20
175.435
 30
0.0
 11
132.25
 21
187.3
 31
0.0
  0
LINE
  5
12C
330
128
100
AcDbEntity
  8
新しいレイヤ_1
 62
     0
100
AcDbLine
 10
118.25
 20
178.185
 30
0.0
 11
118.25
 21
187.3
 31
0.0
  0
LINE
  5
12D
330
128
100
AcDbEntity
  8
新しいレイヤ_1
 62
     0
100
AcDbLine
 10
128.9166666666667
 20
184.8
 30
0.0
 11
121.5833333333333
 21
184.8
 31
0.0
  0
INSERT
  5
12E
330
128
100
AcDbEntity
  8
新しいレイヤ_1
 62
     0
100
AcDbBlockReference
  2
_OPEN30
 10
132.25
 20
184.8
 30
0.0
 41
3.333333333333334
 42
3.333333333333334
 43
3.333333333333334
  0
INSERT
  5
130
330
128
100
AcDbEntity
  8
新しいレイヤ_1
 62
     0
100
AcDbBlockReference
  2
_OPEN30
 10
118.25
 20
184.8
 30
0.0
 41
3.333333333333334
 42
3.333333333333334
 43
3.333333333333334
 50
180.0
  0
MTEXT
  5
131
330
128
100
AcDbEntity
  8
新しいレイヤ_1
 62
     0
100
AcDbMText
 10
125.25
 20
186.069541199783
 30
0.0
 40
1.539082399565885
 41
0.0
 71
     5
 72
     1
  1
14.00
  0
POINT
  5
132
330
128
100
AcDbEntity
  8
DEFPOINTS
 62
     0
100
AcDbPoint
 10
132.25
 20
174.935
 30
0.0
  0
POINT
  5
133
330
128
100
AcDbEntity
  8
DEFPOINTS
 62
     0
100
AcDbPoint
 10
118.25
 20
177.685
 30
0.0
  0
POINT
  5
134
330
128
100
AcDbEntity
  8
DEFPOINTS
 62
     0
100
AcDbPoint
 10
118.25
 20
184.8
 30
0.0
  0
ENDBLK
  5
12A
330
128
100
AcDbEntity
  8
0
100
AcDbBlockEnd
  0
BLOCK
  5
137
330
136
100
AcDbEntity
  8
0
100
AcDbBlockBegin
  2
*D921
 70
     1
 71
     0
 10
0.0
 20
0.0
 30
0.0
  3
*D921
  1

  0
LINE
  5
139
330
136
100
AcDbEntity
  8
新しいレイヤ_1
 62
     0
100
AcDbLine
 10
124.19
 20
180.685
 30
0.0
 11
120.9
 21
180.685
 31
0.0
  0
LINE
  5
13A
330
136
100
AcDbEntity
  8
新しいレイヤ_1
 62
     0
100
AcDbLine
 10
124.19
 20
177.685
 30
0.0
 11
120.9
 21
177.685
 31
0.0
  0
LINE
  5
13B
330
136
100
AcDbEntity
  8
新しいレイヤ_1
 62
     0
100
AcDbLine
 10
123.4
 20
184.0183333333334
 30
0.0
 11
123.4
 21
187.3516666666667
 31
0.0
  0
LINE
  5
13C
330
136
100
AcDbEntity
  8
新しいレイヤ_1
 62
     0
100
AcDbLine
 10
123.4
 20
180.685
 30
0.0
 11
123.4
 21
177.685
 31
0.0
  0
LINE
  5
13D
330
136
100
AcDbEntity
  8
新しいレイヤ_1
 62
     0
100
AcDbLine
 10
123.4
 20
174.3516666666667
 30
0.0
 11
123.4
 21
171.0183333333334
 31
0.0
  0
LINE
  5
13E
330
136
100
AcDbEntity
  8
新しいレイヤ_1
 62
     0
100
AcDbLine
 10
123.4
 20
171.0183333333334
 30
0.0
 11
120.0666666666667
 21
171.0183333333334
 31
0.0
  0
INSERT
  5
140
330
136
100
AcDbEntity
  8
新しいレイヤ_1
 62
     0
100
AcDbBlockReference
  2
_OPEN30
 10
123.4
 20
180.685
 30
0.0
 41
3.333333333333334
 42
3.333333333333334
 43
3.333333333333334
 50
270.0
  0
INSERT
  5
141
330
136
100
AcDbEntity
  8
新しいレイヤ_1
 62
     0
100
AcDbBlockReference
  2
_OPEN30
 10
123.4
 20
177.685
 30
0.0
 41
3.333333333333334
 42
3.333333333333334
 43
3.333333333333334
 50
90.0
  0
MTEXT
  5
142
330
136
100
AcDbEntity
  8
新しいレイヤ_1
 62
     0
100
AcDbMText
 10
118.7971254668837
 20
171.0183333333334
 30
0.0
 40
1.539082399565885
 41
0.0
 71
     5
 72
     1
  1
3.00
 11
0.0
 21
1.0
 31
0.0
  0
POINT
  5
143
330
136
100
AcDbEntity
  8
DEFPOINTS
 62
     0
100
AcDbPoint
 10
124.69
 20
180.685
 30
0.0
  0
POINT
  5
144
330
136
100
AcDbEntity
  8
DEFPOINTS
 62
     0
100
AcDbPoint
 10
124.69
 20
177.685
 30
0.0
  0
POINT
  5
145
330
136
100
AcDbEntity
  8
DEFPOINTS
 62
     0
100
AcDbPoint
 10
123.4
 20
177.685
 30
0.0
  0
ENDBLK
  5
138
330
136
100
AcDbEntity
  8
0
100
AcDbBlockEnd
  0
BLOCK
  5
147
330
146
100
AcDbEntity
  8
0
100
AcDbBlockBegin
  2
*D1022
 70
     1
 71
     0
 10
0.0
 20
0.0
 30
0.0
  3
*D1022
  1

  0
LINE
  5
149
330
146
100
AcDbEntity
  8
新しいレイヤ_1
 62
     0
100
AcDbLine
 10
172.35
 20
177.185
 30
0.0
 11
172.35
 21
167.2
 31
0.0
  0
LINE
  5
14A
330
146
100
AcDbEntity
  8
新しいレイヤ_1
 62
     0
100
AcDbLine
 10
181.75
 20
177.185
 30
0.0
 11
181.75
 21
167.2
 31
0.0
  0
LINE
  5
14B
330
146
100
AcDbEntity
  8
新しいレイヤ_1
 62
     0
100
AcDbLine
 10
175.6833333333333
 20
169.7
 30
0.0
 11
178.4166666666667
 21
169.7
 31
0.0
  0
INSERT
  5
14C
330
146
100
AcDbEntity
  8
新しいレイヤ_1
 62
     0
100
AcDbBlockReference
  2
_OPEN30
 10
172.35
 20
169.7
 30
0.0
 41
3.333333333333334
 42
3.333333333333334
 43
3.333333333333334
 50
180.0
  0
INSERT
  5
14D
330
146
100
AcDbEntity
  8
新しいレイヤ_1
 62
     0
100
AcDbBlockReference
  2
_OPEN30
 10
181.75
 20
169.7
 30
0.0
 41
3.333333333333334
 42
3.333333333333334
 43
3.333333333333334
  0
MTEXT
  5
14E
330
146
100
AcDbEntity
  8
新しいレイヤ_1
 62
     0
100
AcDbMText
 10
177.05
 20
170.9695411997829
 30
0.0
 40
1.539082399565885
 41
0.0
 71
     5
 72
     1
  1
9.40
  0
POINT
  5
150
330
146
100
AcDbEntity
  8
DEFPOINTS
 62
     0
100
AcDbPoint
 10
172.35
 20
177.685
 30
0.0
  0
POINT
  5
151
330
146
100
AcDbEntity
  8
DEFPOINTS
 62
     0
100
AcDbPoint
 10
181.75
 20
177.685
 30
0.0
  0
POINT
  5
152
330
146
100
AcDbEntity
  8
DEFPOINTS
 62
     0
100
AcDbPoint
 10
181.75
 20
169.7
 30
0.0
  0
ENDBLK
  5
148
330
146
100
AcDbEntity
  8
0
100
AcDbBlockEnd
  0
BLOCK
  5
154
330
153
100
AcDbEntity
  8
0
100
AcDbBlockBegin
  2
*D1123
 70
     1
 71
     0
 10
0.0
 20
0.0
 30
0.0
  3
*D1123
  1

  0
LINE
  5
156
330
153
100
AcDbEntity
  8
新しいレイヤ_1
 62
     0
100
AcDbLine
 10
124.69
 20
180.185
 30
0.0
 11
124.69
 21
169.6
 31
0.0
  0
LINE
  5
157
330
153
100
AcDbEntity
  8
新しいレイヤ_1
 62
     0
100
AcDbLine
 10
150.0
 20
180.185
 30
0.0
 11
150.0
 21
169.6
 31
0.0
  0
LINE
  5
158
330
153
100
AcDbEntity
  8
新しいレイヤ_1
 62
     0
100
AcDbLine
 10
128.0233333333333
 20
172.1
 30
0.0
 11
146.6666666666667
 21
172.1
 31
0.0
  0
INSERT
  5
159
330
153
100
AcDbEntity
  8
新しいレイヤ_1
 62
     0
100
AcDbBlockReference
  2
_OPEN30
 10
124.69
 20
172.1
 30
0.0
 41
3.333333333333334
 42
3.333333333333334
 43
3.333333333333334
 50
180.0
  0
INSERT
  5
15B
330
153
100
AcDbEntity
  8
新しいレイヤ_1
 62
     0
100
AcDbBlockReference
  2
_OPEN30
 10
150.0
 20
172.1
 30
0.0
 41
3.333333333333334
 42
3.333333333333334
 43
3.333333333333334
  0
MTEXT
  5
15C
330
153
100
AcDbEntity
  8
新しいレイヤ_1
 62
     0
100
AcDbMText
 10
137.345
 20
173.3695411997829
 30
0.0
 40
1.539082399565885
 41
0.0
 71
     5
 72
     1
  1
25.31
  0
POINT
  5
15D
330
153
100
AcDbEntity
  8
DEFPOINTS
 62
     0
100
AcDbPoint
 10
124.69
 20
180.685
 30
0.0
  0
POINT
  5
15E
330
153
100
AcDbEntity
  8
DEFPOINTS
 62
     0
100
AcDbPoint
 10
150.0
 20
180.685
 30
0.0
  0
POINT
  5
15F
330
153
100
AcDbEntity
  8
DEFPOINTS
 62
     0
100
AcDbPoint
 10
150.0
 20
172.1
 30
0.0
  0
ENDBLK
  5
155
330
153
100
AcDbEntity
  8
0
100
AcDbBlockEnd
  0
BLOCK
  5
161
330
160
100
AcDbEntity
  8
0
100
AcDbBlockBegin
  2
*D1224
 70
     1
 71
     0
 10
0.0
 20
0.0
 30
0.0
  3
*D1224
  1

  0
LINE
  5
163
330
160
100
AcDbEntity
  8
新しいレイヤ_1
 62
     0
100
AcDbLine
 10
150.0
 20
180.185
 30
0.0
 11
150.0
 21
169.5
 31
0.0
  0
LINE
  5
164
330
160
100
AcDbEntity
  8
新しいレイヤ_1
 62
     0
100
AcDbLine
 10
169.69
 20
180.185
 30
0.0
 11
169.69
 21
169.5
 31
0.0
  0
LINE
  5
165
330
160
100
AcDbEntity
  8
新しいレイヤ_1
 62
     0
100
AcDbLine
 10
153.3333333333333
 20
172.0
 30
0.0
 11
166.3566666666667
 21
172.0
 31
0.0
  0
INSERT
  5
166
330
160
100
AcDbEntity
  8
新しいレイヤ_1
 62
     0
100
AcDbBlockReference
  2
_OPEN30
 10
150.0
 20
172.0
 30
0.0
 41
3.333333333333334
 42
3.333333333333334
 43
3.333333333333334
 50
180.0
  0
INSERT
  5
168
330
160
100
AcDbEntity
  8
新しいレイヤ_1
 62
     0
100
AcDbBlockReference
  2
_OPEN30
 10
169.69
 20
172.0
 30
0.0
 41
3.333333333333334
 42
3.333333333333334
 43
3.333333333333334
  0
MTEXT
  5
169
330
160
100
AcDbEntity
  8
新しいレイヤ_1
 62
     0
100
AcDbMText
 10
159.845
 20
173.269541199783
 30
0.0
 40
1.539082399565885
 41
0.0
 71
     5
 72
     1
  1
19.69
  0
POINT
  5
16A
330
160
100
AcDbEntity
  8
DEFPOINTS
 62
     0
100
AcDbPoint
 10
150.0
 20
180.685
 30
0.0
  0
POINT
  5
16B
330
160
100
AcDbEntity
  8
DEFPOINTS
 62
     0
100
AcDbPoint
 10
169.69
 20
180.685
 30
0.0
  0
POINT
  5
16C
330
160
100
AcDbEntity
  8
DEFPOINTS
 62
     0
100
AcDbPoint
 10
169.69
 20
172.0
 30
0.0
  0
ENDBLK
  5
162
330
160
100
AcDbEntity
  8
0
100
AcDbBlockEnd
  0
BLOCK
  5
16E
330
16D
100
AcDbEntity
  8
0
100
AcDbBlockBegin
  2
*D1325
 70
     1
 71
     0
 10
0.0
 20
0.0
 30
0.0
  3
*D1325
  1

  0
LINE
  5
170
330
16D
100
AcDbEntity
  8
新しいレイヤ_1
 62
     0
100
AcDbLine
 10
149.5
 20
126.885
 30
0.0
 11
126.7
 21
126.885
 31
0.0
  0
LINE
  5
171
330
16D
100
AcDbEntity
  8
新しいレイヤ_1
 62
     0
100
AcDbLine
 10
149.5
 20
122.315
 30
0.0
 11
126.7
 21
122.315
 31
0.0
  0
LINE
  5
172
330
16D
100
AcDbEntity
  8
新しいレイヤ_1
 62
     0
100
AcDbLine
 10
129.2
 20
130.2183333333333
 30
0.0
 11
129.2
 21
133.5516666666667
 31
0.0
  0
LINE
  5
173
330
16D
100
AcDbEntity
  8
新しいレイヤ_1
 62
     0
100
AcDbLine
 10
129.2
 20
126.885
 30
0.0
 11
129.2
 21
122.315
 31
0.0
  0
LINE
  5
174
330
16D
100
AcDbEntity
  8
新しいレイヤ_1
 62
     0
100
AcDbLine
 10
129.2
 20
118.9816666666667
 30
0.0
 11
129.2
 21
115.6483333333333
 31
0.0
  0
LINE
  5
175
330
16D
100
AcDbEntity
  8
新しいレイヤ_1
 62
     0
100
AcDbLine
 10
129.2
 20
115.6483333333333
 30
0.0
 11
125.8666666666666
 21
115.6483333333333
 31
0.0
  0
INSERT
  5
177
330
16D
100
AcDbEntity
  8
新しいレイヤ_1
 62
     0
100
AcDbBlockReference
  2
_OPEN30
 10
129.2
 20
126.885
 30
0.0
 41
3.333333333333334
 42
3.333333333333334
 43
3.333333333333334
 50
270.0
  0
INSERT
  5
178
330
16D
100
AcDbEntity
  8
新しいレイヤ_1
 62
     0
100
AcDbBlockReference
  2
_OPEN30
 10
129.2
 20
122.315
 30
0.0
 41
3.333333333333334
 42
3.333333333333334
 43
3.333333333333334
 50
90.0
  0
MTEXT
  5
179
330
16D
100
AcDbEntity
  8
新しいレイヤ_1
 62
     0
100
AcDbMText
 10
124.5971254668837
 20
115.6483333333333
 30
0.0
 40
1.539082399565885
 41
0.0
 71
     5
 72
     1
  1
4.57
 11
0.0
 21
1.0
 31
0.0
  0
POINT
  5
17A
330
16D
100
AcDbEntity
  8
DEFPOINTS
 62
     0
100
AcDbPoint
 10
150.0
 20
126.885
 30
0.0
  0
POINT
  5
17B
330
16D
100
AcDbEntity
  8
DEFPOINTS
 62
     0
100
AcDbPoint
 10
150.0
 20
122.315
 30
0.0
  0
POINT
  5
17C
330
16D
100
AcDbEntity
  8
DEFPOINTS
 62
     0
100
AcDbPoint
 10
129.2
 20
122.315
 30
0.0
  0
ENDBLK
  5
16F
330
16D
100
AcDbEntity
  8
0
100
AcDbBlockEnd
  0
BLOCK
  5
17E
330
17D
100
AcDbEntity
  8
0
100
AcDbBlockBegin
  2
*D1426
 70
     1
 71
     0
 10
0.0
 20
0.0
 30
0.0
  3
*D1426
  1

  0
LINE
  5
180
330
17D
100
AcDbEntity
  8
新しいレイヤ_1
 62
     0
100
AcDbLine
 10
143.15
 20
129.445
 30
0.0
 11
135.31
 21
129.445
 31
0.0
  0
LINE
  5
181
330
17D
100
AcDbEntity
  8
新しいレイヤ_1
 62
     0
100
AcDbLine
 10
143.15
 20
126.9
 30
0.0
 11
135.31
 21
126.9
 31
0.0
  0
LINE
  5
182
330
17D
100
AcDbEntity
  8
新しいレイヤ_1
 62
     0
100
AcDbLine
 10
137.81
 20
132.7783333333333
 30
0.0
 11
137.81
 21
136.1116666666667
 31
0.0
  0
LINE
  5
183
330
17D
100
AcDbEntity
  8
新しいレイヤ_1
 62
     0
100
AcDbLine
 10
137.81
 20
129.445
 30
0.0
 11
137.81
 21
126.9
 31
0.0
  0
LINE
  5
184
330
17D
100
AcDbEntity
  8
新しいレイヤ_1
 62
     0
100
AcDbLine
 10
137.81
 20
123.5666666666667
 30
0.0
 11
137.81
 21
120.2333333333333
 31
0.0
  0
LINE
  5
185
330
17D
100
AcDbEntity
  8
新しいレイヤ_1
 62
     0
100
AcDbLine
 10
137.81
 20
120.2333333333333
 30
0.0
 11
134.4766666666667
 21
120.2333333333333
 31
0.0
  0
INSERT
  5
187
330
17D
100
AcDbEntity
  8
新しいレイヤ_1
 62
     0
100
AcDbBlockReference
  2
_OPEN30
 10
137.81
 20
129.445
 30
0.0
 41
3.333333333333334
 42
3.333333333333334
 43
3.333333333333334
 50
270.0
  0
INSERT
  5
188
330
17D
100
AcDbEntity
  8
新しいレイヤ_1
 62
     0
100
AcDbBlockReference
  2
_OPEN30
 10
137.81
 20
126.9
 30
0.0
 41
3.333333333333334
 42
3.333333333333334
 43
3.333333333333334
 50
90.0
  0
MTEXT
  5
189
330
17D
100
AcDbEntity
  8
新しいレイヤ_1
 62
     0
100
AcDbMText
 10
133.2071254668838
 20
120.2333333333333
 30
0.0
 40
1.539082399565885
 41
0.0
 71
     5
 72
     1
  1
2.54
 11
0.0
 21
1.0
 31
0.0
  0
POINT
  5
18A
330
17D
100
AcDbEntity
  8
DEFPOINTS
 62
     0
100
AcDbPoint
 10
143.65
 20
129.445
 30
0.0
  0
POINT
  5
18B
330
17D
100
AcDbEntity
  8
DEFPOINTS
 62
     0
100
AcDbPoint
 10
143.65
 20
126.9
 30
0.0
  0
POINT
  5
18C
330
17D
100
AcDbEntity
  8
DEFPOINTS
 62
     0
100
AcDbPoint
 10
137.81
 20
126.9
 30
0.0
  0
ENDBLK
  5
17F
330
17D
100
AcDbEntity
  8
0
100
AcDbBlockEnd
  0
BLOCK
  5
18E
330
18D
100
AcDbEntity
  8
0
100
AcDbBlockBegin
  2
*D1527
 70
     1
 71
     0
 10
0.0
 20
0.0
 30
0.0
  3
*D1527
  1

  0
LINE
  5
190
330
18D
100
AcDbEntity
  8
新しいレイヤ_1
 62
     0
100
AcDbLine
 10
107.2115714098341
 20
115.7431601717799
 30
0.0
 11
111.6781601717799
 21
115.7431601717799
 31
0.0
  0
LINE
  5
191
330
18D
100
AcDbEntity
  8
新しいレイヤ_1
 62
     0
100
AcDbLine
 10
111.6781601717799
 20
115.7431601717799
 30
0.0
 11
117.4630279023837
 21
121.5280279023837
 31
0.0
  0
MTEXT
  5
192
330
18D
100
AcDbEntity
  8
新しいレイヤ_1
 62
     0
100
AcDbMText
 10
109.5568398282202
 20
117.0127013715628
 30
0.0
 40
1.539082399565885
 41
0.0
 71
     5
 72
     1
  1
\U+22052.80
  0
INSERT
  5
193
330
18D
100
AcDbEntity
  8
新しいレイヤ_1
 62
     0
100
AcDbBlockReference
  2
_OPEN30
 10
119.8200505063388
 20
123.8850505063388
 30
0.0
 41
3.333333333333334
 42
3.333333333333334
 43
3.333333333333334
 50
45.0
  0
LINE
  5
195
330
18D
100
AcDbEntity
  8
新しいレイヤ_1
 62
     0
100
AcDbLine
 10
120.72
 20
124.875
 30
0.0
 11
120.9
 21
124.875
 31
0.0
  0
LINE
  5
196
330
18D
100
AcDbEntity
  8
新しいレイヤ_1
 62
     0
100
AcDbLine
 10
120.81
 20
124.785
 30
0.0
 11
120.81
 21
124.965
 31
0.0
  0
POINT
  5
197
330
18D
100
AcDbEntity
  8
DEFPOINTS
 62
     0
100
AcDbPoint
 10
119.8200505063388
 20
123.8850505063388
 30
0.0
  0
POINT
  5
198
330
18D
100
AcDbEntity
  8
DEFPOINTS
 62
     0
100
AcDbPoint
 10
121.7999494936612
 20
125.8649494936612
 30
0.0
  0
ENDBLK
  5
18F
330
18D
100
AcDbEntity
  8
0
100
AcDbBlockEnd
  0
BLOCK
  5
19A
330
199
100
AcDbEntity
  8
0
100
AcDbBlockBegin
  2
*D1628
 70
     1
 71
     0
 10
0.0
 20
0.0
 30
0.0
  3
*D1628
  1

  0
LINE
  5
19C
330
199
100
AcDbEntity
  8
新しいレイヤ_1
 62
     0
100
AcDbLine
 10
219.2
 20
121.815
 30
0.0
 11
219.2
 21
104.2
 31
0.0
  0
LINE
  5
19D
330
199
100
AcDbEntity
  8
新しいレイヤ_1
 62
     0
100
AcDbLine
 10
220.8
 20
121.815
 30
0.0
 11
220.8
 21
104.2
 31
0.0
  0
LINE
  5
19E
330
199
100
AcDbEntity
  8
新しいレイヤ_1
 62
     0
100
AcDbLine
 10
215.8666666666667
 20
106.7
 30
0.0
 11
212.5333333333333
 21
106.7
 31
0.0
  0
LINE
  5
19F
330
199
100
AcDbEntity
  8
新しいレイヤ_1
 62
     0
100
AcDbLine
 10
219.2
 20
106.7
 30
0.0
 11
220.8
 21
106.7
 31
0.0
  0
LINE
  5
1A0
330
199
100
AcDbEntity
  8
新しいレイヤ_1
 62
     0
100
AcDbLine
 10
224.1333333333333
 20
106.7
 30
0.0
 11
230.8
 21
106.7
 31
0.0
  0
INSERT
  5
1A1
330
199
100
AcDbEntity
  8
新しいレイヤ_1
 62
     0
100
AcDbBlockReference
  2
_OPEN30
 10
219.2
 20
106.7
 30
0.0
 41
3.333333333333334
 42
3.333333333333334
 43
3.333333333333334
  0
INSERT
  5
1A3
330
199
100
AcDbEntity
  8
新しいレイヤ_1
 62
     0
100
AcDbBlockReference
  2
_OPEN30
 10
220.8
 20
106.7
 30
0.0
 41
3.333333333333334
 42
3.333333333333334
 43
3.333333333333334
 50
180.0
  0
MTEXT
  5
1A4
330
199
100
AcDbEntity
  8
新しいレイヤ_1
 62
     0
100
AcDbMText
 10
233.5353339612742
 20
106.7
 30
0.0
 40
1.539082399565885
 41
0.0
 71
     5
 72
     1
  1
1.60
  0
POINT
  5
1A5
330
199
100
AcDbEntity
  8
DEFPOINTS
 62
     0
100
AcDbPoint
 10
219.2
 20
122.315
 30
0.0
  0
POINT
  5
1A6
330
199
100
AcDbEntity
  8
DEFPOINTS
 62
     0
100
AcDbPoint
 10
220.8
 20
122.315
 30
0.0
  0
POINT
  5
1A7
330
199
100
AcDbEntity
  8
DEFPOINTS
 62
     0
100
AcDbPoint
 10
220.8
 20
106.7
 30
0.0
  0
ENDBLK
  5
19B
330
199
100
AcDbEntity
  8
0
100
AcDbBlockEnd
  0
BLOCK
  5
1A9
330
1A8
100
AcDbEntity
  8
0
100
AcDbBlockBegin
  2
*D1729
 70
     1
 71
     0
 10
0.0
 20
0.0
 30
0.0
  3
*D1729
  1

  0
LINE
  5
1AB
330
1A8
100
AcDbEntity
  8
新しいレイヤ_1
 62
     0
100
AcDbLine
 10
227.8
 20
140.185
 30
0.0
 11
227.8
 21
129.4
 31
0.0
  0
LINE
  5
1AC
330
1A8
100
AcDbEntity
  8
新しいレイヤ_1
 62
     0
100
AcDbLine
 10
220.8
 20
140.185
 30
0.0
 11
220.8
 21
129.4
 31
0.0
  0
LINE
  5
1AD
330
1A8
100
AcDbEntity
  8
新しいレイヤ_1
 62
     0
100
AcDbLine
 10
231.1333333333333
 20
131.9
 30
0.0
 11
234.4666666666666
 21
131.9
 31
0.0
  0
LINE
  5
1AE
330
1A8
100
AcDbEntity
  8
新しいレイヤ_1
 62
     0
100
AcDbLine
 10
217.4666666666666
 20
131.9
 30
0.0
 11
214.1333333333333
 21
131.9
 31
0.0
  0
LINE
  5
1AF
330
1A8
100
AcDbEntity
  8
新しいレイヤ_1
 62
     0
100
AcDbLine
 10
227.8
 20
131.9
 30
0.0
 11
220.8
 21
131.9
 31
0.0
  0
INSERT
  5
1B0
330
1A8
100
AcDbEntity
  8
新しいレイヤ_1
 62
     0
100
AcDbBlockReference
  2
_OPEN30
 10
227.8
 20
131.9
 30
0.0
 41
3.333333333333334
 42
3.333333333333334
 43
3.333333333333334
 50
180.0
  0
INSERT
  5
1B2
330
1A8
100
AcDbEntity
  8
新しいレイヤ_1
 62
     0
100
AcDbBlockReference
  2
_OPEN30
 10
220.8
 20
131.9
 30
0.0
 41
3.333333333333334
 42
3.333333333333334
 43
3.333333333333334
  0
MTEXT
  5
1B3
330
1A8
100
AcDbEntity
  8
新しいレイヤ_1
 62
     0
100
AcDbMText
 10
224.3
 20
133.1695411997829
 30
0.0
 40
1.539082399565885
 41
0.0
 71
     5
 72
     1
  1
7.00
  0
POINT
  5
1B4
330
1A8
100
AcDbEntity
  8
DEFPOINTS
 62
     0
100
AcDbPoint
 10
227.8
 20
140.685
 30
0.0
  0
POINT
  5
1B5
330
1A8
100
AcDbEntity
  8
DEFPOINTS
 62
     0
100
AcDbPoint
 10
220.8
 20
140.685
 30
0.0
  0
POINT
  5
1B6
330
1A8
100
AcDbEntity
  8
DEFPOINTS
 62
     0
100
AcDbPoint
 10
220.8
 20
131.9
 30
0.0
  0
ENDBLK
  5
1AA
330
1A8
100
AcDbEntity
  8
0
100
AcDbBlockEnd
  0
BLOCK
  5
1B8
330
1B7
100
AcDbEntity
  8
0
100
AcDbBlockBegin
  2
*D1830
 70
     1
 71
     0
 10
0.0
 20
0.0
 30
0.0
  3
*D1830
  1

  0
LINE
  5
1BA
330
1B7
100
AcDbEntity
  8
新しいレイヤ_1
 62
     0
100
AcDbLine
 10
228.3
 20
180.685
 30
0.0
 11
238.6000000000001
 21
180.685
 31
0.0
  0
LINE
  5
1BB
330
1B7
100
AcDbEntity
  8
新しいレイヤ_1
 62
     0
100
AcDbLine
 10
228.3
 20
140.685
 30
0.0
 11
238.6
 21
140.685
 31
0.0
  0
LINE
  5
1BC
330
1B7
100
AcDbEntity
  8
新しいレイヤ_1
 62
     0
100
AcDbLine
 10
236.1000000000001
 20
177.3516666666667
 30
0.0
 11
236.1
 21
144.0183333333333
 31
0.0
  0
INSERT
  5
1BD
330
1B7
100
AcDbEntity
  8
新しいレイヤ_1
 62
     0
100
AcDbBlockReference
  2
_OPEN30
 10
236.1000000000001
 20
180.685
 30
0.0
 41
3.333333333333334
 42
3.333333333333334
 43
3.333333333333334
 50
89.99999999999976
  0
INSERT
  5
1BF
330
1B7
100
AcDbEntity
  8
新しいレイヤ_1
 62
     0
100
AcDbBlockReference
  2
_OPEN30
 10
236.1
 20
140.685
 30
0.0
 41
3.333333333333334
 42
3.333333333333334
 43
3.333333333333334
 50
269.9999999999998
  0
MTEXT
  5
1C0
330
1B7
100
AcDbEntity
  8
新しいレイヤ_1
 62
     0
100
AcDbMText
 10
237.369541199783
 20
160.685
 30
0.0
 40
1.539082399565885
 41
0.0
 71
     5
 72
     1
  1
40.00
 11
3.552713678800501E-15
 21
1.0
 31
0.0
  0
POINT
  5
1C1
330
1B7
100
AcDbEntity
  8
DEFPOINTS
 62
     0
100
AcDbPoint
 10
227.8
 20
180.685
 30
0.0
  0
POINT
  5
1C2
330
1B7
100
AcDbEntity
  8
DEFPOINTS
 62
     0
100
AcDbPoint
 10
227.8
 20
140.685
 30
0.0
  0
POINT
  5
1C3
330
1B7
100
AcDbEntity
  8
DEFPOINTS
 62
     0
100
AcDbPoint
 10
236.1
 20
140.685
 30
0.0
  0
ENDBLK
  5
1B9
330
1B7
100
AcDbEntity
  8
0
100
AcDbBlockEnd
  0
BLOCK
  5
1C5
330
1C4
100
AcDbEntity
  8
0
100
AcDbBlockBegin
  2
*D1931
 70
     1
 71
     0
 10
0.0
 20
0.0
 30
0.0
  3
*D1931
  1

  0
LINE
  5
1C7
330
1C4
100
AcDbEntity
  8
新しいレイヤ_1
 62
     0
100
AcDbLine
 10
222.8
 20
185.185
 30
0.0
 11
222.8
 21
192.8
 31
0.0
  0
LINE
  5
1C8
330
1C4
100
AcDbEntity
  8
新しいレイヤ_1
 62
     0
100
AcDbLine
 10
227.8
 20
185.185
 30
0.0
 11
227.8
 21
192.8
 31
0.0
  0
LINE
  5
1C9
330
1C4
100
AcDbEntity
  8
新しいレイヤ_1
 62
     0
100
AcDbLine
 10
219.4666666666666
 20
190.3
 30
0.0
 11
216.1333333333333
 21
190.3
 31
0.0
  0
LINE
  5
1CA
330
1C4
100
AcDbEntity
  8
新しいレイヤ_1
 62
     0
100
AcDbLine
 10
222.8
 20
190.3
 30
0.0
 11
227.8
 21
190.3
 31
0.0
  0
LINE
  5
1CB
330
1C4
100
AcDbEntity
  8
新しいレイヤ_1
 62
     0
100
AcDbLine
 10
231.1333333333333
 20
190.3
 30
0.0
 11
237.8
 21
190.3
 31
0.0
  0
INSERT
  5
1CC
330
1C4
100
AcDbEntity
  8
新しいレイヤ_1
 62
     0
100
AcDbBlockReference
  2
_OPEN30
 10
222.8
 20
190.3
 30
0.0
 41
3.333333333333334
 42
3.333333333333334
 43
3.333333333333334
  0
INSERT
  5
1CE
330
1C4
100
AcDbEntity
  8
新しいレイヤ_1
 62
     0
100
AcDbBlockReference
  2
_OPEN30
 10
227.8
 20
190.3
 30
0.0
 41
3.333333333333334
 42
3.333333333333334
 43
3.333333333333334
 50
180.0
  0
MTEXT
  5
1CF
330
1C4
100
AcDbEntity
  8
新しいレイヤ_1
 62
     0
100
AcDbMText
 10
240.6452684183861
 20
190.3
 30
0.0
 40
1.539082399565885
 41
0.0
 71
     5
 72
     1
  1
5.00
  0
POINT
  5
1D0
330
1C4
100
AcDbEntity
  8
DEFPOINTS
 62
     0
100
AcDbPoint
 10
222.8
 20
184.685
 30
0.0
  0
POINT
  5
1D1
330
1C4
100
AcDbEntity
  8
DEFPOINTS
 62
     0
100
AcDbPoint
 10
227.8
 20
184.685
 30
0.0
  0
POINT
  5
1D2
330
1C4
100
AcDbEntity
  8
DEFPOINTS
 62
     0
100
AcDbPoint
 10
227.8
 20
190.3
 30
0.0
  0
ENDBLK
  5
1C6
330
1C4
100
AcDbEntity
  8
0
100
AcDbBlockEnd
  0
BLOCK
  5
1D4
330
1D3
100
AcDbEntity
  8
0
100
AcDbBlockBegin
  2
*D2032
 70
     1
 71
     0
 10
0.0
 20
0.0
 30
0.0
  3
*D2032
  1

  0
LINE
  5
1D6
330
1D3
100
AcDbEntity
  8
新しいレイヤ_1
 62
     0
100
AcDbLine
 10
220.0
 20
177.185
 30
0.0
 11
220.0
 21
168.3
 31
0.0
  0
LINE
  5
1D7
330
1D3
100
AcDbEntity
  8
新しいレイヤ_1
 62
     0
100
AcDbLine
 10
217.2
 20
177.5
 30
0.0
 11
217.2
 21
168.3
 31
0.0
  0
LINE
  5
1D8
330
1D3
100
AcDbEntity
  8
新しいレイヤ_1
 62
     0
100
AcDbLine
 10
223.3333333333333
 20
170.8
 30
0.0
 11
226.6666666666667
 21
170.8
 31
0.0
  0
LINE
  5
1D9
330
1D3
100
AcDbEntity
  8
新しいレイヤ_1
 62
     0
100
AcDbLine
 10
220.0
 20
170.8
 30
0.0
 11
217.2
 21
170.8
 31
0.0
  0
LINE
  5
1DA
330
1D3
100
AcDbEntity
  8
新しいレイヤ_1
 62
     0
100
AcDbLine
 10
213.8666666666667
 20
170.8
 30
0.0
 11
207.2
 21
170.8
 31
0.0
  0
INSERT
  5
1DB
330
1D3
100
AcDbEntity
  8
新しいレイヤ_1
 62
     0
100
AcDbBlockReference
  2
_OPEN30
 10
220.0
 20
170.8
 30
0.0
 41
3.333333333333334
 42
3.333333333333334
 43
3.333333333333334
 50
180.0
  0
INSERT
  5
1DD
330
1D3
100
AcDbEntity
  8
新しいレイヤ_1
 62
     0
100
AcDbBlockReference
  2
_OPEN30
 10
217.2
 20
170.8
 30
0.0
 41
3.333333333333334
 42
3.333333333333334
 43
3.333333333333334
  0
MTEXT
  5
1DE
330
1D3
100
AcDbEntity
  8
新しいレイヤ_1
 62
     0
100
AcDbMText
 10
204.3547315816139
 20
170.8
 30
0.0
 40
1.539082399565885
 41
0.0
 71
     5
 72
     1
  1
2.80
  0
POINT
  5
1DF
330
1D3
100
AcDbEntity
  8
DEFPOINTS
 62
     0
100
AcDbPoint
 10
220.0
 20
177.685
 30
0.0
  0
POINT
  5
1E0
330
1D3
100
AcDbEntity
  8
DEFPOINTS
 62
     0
100
AcDbPoint
 10
217.2
 20
178.0
 30
0.0
  0
POINT
  5
1E1
330
1D3
100
AcDbEntity
  8
DEFPOINTS
 62
     0
100
AcDbPoint
 10
217.2
 20
170.8
 30
0.0
  0
ENDBLK
  5
1D5
330
1D3
100
AcDbEntity
  8
0
100
AcDbBlockEnd
  0
BLOCK
  5
1E3
330
1E2
100
AcDbEntity
  8
0
100
AcDbBlockBegin
  2
*D2133
 70
     1
 71
     0
 10
0.0
 20
0.0
 30
0.0
  3
*D2133
  1

  0
LINE
  5
1E5
330
1E2
100
AcDbEntity
  8
新しいレイヤ_1
 62
     0
100
AcDbLine
 10
228.3
 20
184.685
 30
0.0
 11
234.7
 21
184.685
 31
0.0
  0
LINE
  5
1E6
330
1E2
100
AcDbEntity
  8
新しいレイヤ_1
 62
     0
100
AcDbLine
 10
228.3
 20
180.685
 30
0.0
 11
234.7
 21
180.685
 31
0.0
  0
LINE
  5
1E7
330
1E2
100
AcDbEntity
  8
新しいレイヤ_1
 62
     0
100
AcDbLine
 10
232.2000000000001
 20
188.0183333333334
 30
0.0
 11
232.2000000000001
 21
191.3516666666667
 31
0.0
  0
LINE
  5
1E8
330
1E2
100
AcDbEntity
  8
新しいレイヤ_1
 62
     0
100
AcDbLine
 10
232.2
 20
184.685
 30
0.0
 11
232.2
 21
180.685
 31
0.0
  0
LINE
  5
1E9
330
1E2
100
AcDbEntity
  8
新しいレイヤ_1
 62
     0
100
AcDbLine
 10
232.2
 20
177.3516666666667
 30
0.0
 11
232.1999999999999
 21
174.0183333333334
 31
0.0
  0
LINE
  5
1EA
330
1E2
100
AcDbEntity
  8
新しいレイヤ_1
 62
     0
100
AcDbLine
 10
232.1999999999999
 20
174.0183333333334
 30
0.0
 11
228.8666666666666
 21
174.0183333333334
 31
0.0
  0
INSERT
  5
1EC
330
1E2
100
AcDbEntity
  8
新しいレイヤ_1
 62
     0
100
AcDbBlockReference
  2
_OPEN30
 10
232.2
 20
184.685
 30
0.0
 41
3.333333333333334
 42
3.333333333333334
 43
3.333333333333334
 50
269.9999999999995
  0
INSERT
  5
1ED
330
1E2
100
AcDbEntity
  8
新しいレイヤ_1
 62
     0
100
AcDbBlockReference
  2
_OPEN30
 10
232.2
 20
180.685
 30
0.0
 41
3.333333333333334
 42
3.333333333333334
 43
3.333333333333334
 50
89.99999999999952
  0
MTEXT
  5
1EE
330
1E2
100
AcDbEntity
  8
新しいレイヤ_1
 62
     0
100
AcDbMText
 10
227.5971254668837
 20
174.0183333333334
 30
0.0
 40
1.539082399565885
 41
0.0
 71
     5
 72
     1
  1
4.00
 11
7.105427357601002E-15
 21
1.0
 31
0.0
  0
POINT
  5
1EF
330
1E2
100
AcDbEntity
  8
DEFPOINTS
 62
     0
100
AcDbPoint
 10
227.8
 20
184.685
 30
0.0
  0
POINT
  5
1F0
330
1E2
100
AcDbEntity
  8
DEFPOINTS
 62
     0
100
AcDbPoint
 10
227.8
 20
180.685
 30
0.0
  0
POINT
  5
1F1
330
1E2
100
AcDbEntity
  8
DEFPOINTS
 62
     0
100
AcDbPoint
 10
232.2
 20
180.685
 30
0.0
  0
ENDBLK
  5
1E4
330
1E2
100
AcDbEntity
  8
0
100
AcDbBlockEnd
  0
BLOCK
  5
1F3
330
1F2
100
AcDbEntity
  8
0
100
AcDbBlockBegin
  2
*D2234
 70
     1
 71
     0
 10
0.0
 20
0.0
 30
0.0
  3
*D2234
  1

  0
LINE
  5
1F5
330
1F2
100
AcDbEntity
  8
新しいレイヤ_1
 62
     0
100
AcDbLine
 10
143.65
 20
126.4
 30
0.0
 11
143.65
 21
115.9
 31
0.0
  0
LINE
  5
1F6
330
1F2
100
AcDbEntity
  8
新しいレイヤ_1
 62
     0
100
AcDbLine
 10
150.0
 20
121.815
 30
0.0
 11
150.0
 21
115.9
 31
0.0
  0
LINE
  5
1F7
330
1F2
100
AcDbEntity
  8
新しいレイヤ_1
 62
     0
100
AcDbLine
 10
140.3166666666667
 20
118.4
 30
0.0
 11
136.9833333333334
 21
118.4
 31
0.0
  0
LINE
  5
1F8
330
1F2
100
AcDbEntity
  8
新しいレイヤ_1
 62
     0
100
AcDbLine
 10
153.3333333333333
 20
118.4
 30
0.0
 11
156.6666666666667
 21
118.4
 31
0.0
  0
LINE
  5
1F9
330
1F2
100
AcDbEntity
  8
新しいレイヤ_1
 62
     0
100
AcDbLine
 10
143.65
 20
118.4
 30
0.0
 11
150.0
 21
118.4
 31
0.0
  0
INSERT
  5
1FA
330
1F2
100
AcDbEntity
  8
新しいレイヤ_1
 62
     0
100
AcDbBlockReference
  2
_OPEN30
 10
143.65
 20
118.4
 30
0.0
 41
3.333333333333334
 42
3.333333333333334
 43
3.333333333333334
  0
INSERT
  5
1FC
330
1F2
100
AcDbEntity
  8
新しいレイヤ_1
 62
     0
100
AcDbBlockReference
  2
_OPEN30
 10
150.0
 20
118.4
 30
0.0
 41
3.333333333333334
 42
3.333333333333334
 43
3.333333333333334
 50
180.0
  0
MTEXT
  5
1FD
330
1F2
100
AcDbEntity
  8
新しいレイヤ_1
 62
     0
100
AcDbMText
 10
146.825
 20
119.669541199783
 30
0.0
 40
1.539082399565885
 41
0.0
 71
     5
 72
     1
  1
6.35
  0
POINT
  5
1FE
330
1F2
100
AcDbEntity
  8
DEFPOINTS
 62
     0
100
AcDbPoint
 10
143.65
 20
126.9
 30
0.0
  0
POINT
  5
1FF
330
1F2
100
AcDbEntity
  8
DEFPOINTS
 62
     0
100
AcDbPoint
 10
150.0
 20
122.315
 30
0.0
  0
POINT
  5
200
330
1F2
100
AcDbEntity
  8
DEFPOINTS
 62
     0
100
AcDbPoint
 10
150.0
 20
118.4
 30
0.0
  0
ENDBLK
  5
1F4
330
1F2
100
AcDbEntity
  8
0
100
AcDbBlockEnd
  0
BLOCK
  5
202
330
201
100
AcDbEntity
  8
0
100
AcDbBlockBegin
  2
*D2335
 70
     1
 71
     0
 10
0.0
 20
0.0
 30
0.0
  3
*D2335
  1

  0
LINE
  5
204
330
201
100
AcDbEntity
  8
新しいレイヤ_1
 62
     0
100
AcDbLine
 10
163.97
 20
126.4
 30
0.0
 11
163.97
 21
115.9
 31
0.0
  0
LINE
  5
205
330
201
100
AcDbEntity
  8
新しいレイヤ_1
 62
     0
100
AcDbLine
 10
150.0
 20
121.815
 30
0.0
 11
150.0
 21
115.9
 31
0.0
  0
LINE
  5
206
330
201
100
AcDbEntity
  8
新しいレイヤ_1
 62
     0
100
AcDbLine
 10
160.6366666666667
 20
118.4
 30
0.0
 11
153.3333333333333
 21
118.4
 31
0.0
  0
INSERT
  5
207
330
201
100
AcDbEntity
  8
新しいレイヤ_1
 62
     0
100
AcDbBlockReference
  2
_OPEN30
 10
163.97
 20
118.4
 30
0.0
 41
3.333333333333334
 42
3.333333333333334
 43
3.333333333333334
  0
INSERT
  5
209
330
201
100
AcDbEntity
  8
新しいレイヤ_1
 62
     0
100
AcDbBlockReference
  2
_OPEN30
 10
150.0
 20
118.4
 30
0.0
 41
3.333333333333334
 42
3.333333333333334
 43
3.333333333333334
 50
180.0
  0
MTEXT
  5
20A
330
201
100
AcDbEntity
  8
新しいレイヤ_1
 62
     0
100
AcDbMText
 10
156.985
 20
119.669541199783
 30
0.0
 40
1.539082399565885
 41
0.0
 71
     5
 72
     1
  1
13.97
  0
POINT
  5
20B
330
201
100
AcDbEntity
  8
DEFPOINTS
 62
     0
100
AcDbPoint
 10
163.97
 20
126.9
 30
0.0
  0
POINT
  5
20C
330
201
100
AcDbEntity
  8
DEFPOINTS
 62
     0
100
AcDbPoint
 10
150.0
 20
122.315
 30
0.0
  0
POINT
  5
20D
330
201
100
AcDbEntity
  8
DEFPOINTS
 62
     0
100
AcDbPoint
 10
150.0
 20
118.4
 30
0.0
  0
ENDBLK
  5
203
330
201
100
AcDbEntity
  8
0
100
AcDbBlockEnd
  0
BLOCK
  5
218
330
217
100
AcDbEntity
  8
0
100
AcDbBlockBegin
  2
*D2436
 70
     1
 71
     0
 10
0.0
 20
0.0
 30
0.0
  3
*D2436
  1

  0
LINE
  5
21A
330
217
100
AcDbEntity
  8
新しいレイヤ_1
 62
     0
100
AcDbLine
 10
210.7
 20
131.565
 30
0.0
 11
207.4
 21
131.565
 31
0.0
  0
LINE
  5
21B
330
217
100
AcDbEntity
  8
新しいレイヤ_1
 62
     0
100
AcDbLine
 10
210.7
 20
126.065
 30
0.0
 11
207.4
 21
126.065
 31
0.0
  0
LINE
  5
21C
330
217
100
AcDbEntity
  8
新しいレイヤ_1
 62
     0
100
AcDbLine
 10
209.9
 20
134.8983333333333
 30
0.0
 11
209.9
 21
138.2316666666667
 31
0.0
  0
LINE
  5
21D
330
217
100
AcDbEntity
  8
新しいレイヤ_1
 62
     0
100
AcDbLine
 10
209.9
 20
131.565
 30
0.0
 11
209.9
 21
126.065
 31
0.0
  0
LINE
  5
21E
330
217
100
AcDbEntity
  8
新しいレイヤ_1
 62
     0
100
AcDbLine
 10
209.9
 20
122.7316666666666
 30
0.0
 11
209.9
 21
119.3983333333333
 31
0.0
  0
LINE
  5
21F
330
217
100
AcDbEntity
  8
新しいレイヤ_1
 62
     0
100
AcDbLine
 10
209.9
 20
119.3983333333333
 30
0.0
 11
206.5666666666666
 21
119.3983333333333
 31
0.0
  0
INSERT
  5
221
330
217
100
AcDbEntity
  8
新しいレイヤ_1
 62
     0
100
AcDbBlockReference
  2
_OPEN30
 10
209.9
 20
131.565
 30
0.0
 41
3.333333333333334
 42
3.333333333333334
 43
3.333333333333334
 50
270.0
  0
INSERT
  5
222
330
217
100
AcDbEntity
  8
新しいレイヤ_1
 62
     0
100
AcDbBlockReference
  2
_OPEN30
 10
209.9
 20
126.065
 30
0.0
 41
3.333333333333334
 42
3.333333333333334
 43
3.333333333333334
 50
90.0
  0
MTEXT
  5
223
330
217
100
AcDbEntity
  8
新しいレイヤ_1
 62
     0
100
AcDbMText
 10
205.2971254668837
 20
119.3983333333333
 30
0.0
 40
1.539082399565885
 41
0.0
 71
     5
 72
     1
  1
5.50
 11
0.0
 21
1.0
 31
0.0
  0
POINT
  5
224
330
217
100
AcDbEntity
  8
DEFPOINTS
 62
     0
100
AcDbPoint
 10
211.2
 20
131.565
 30
0.0
  0
POINT
  5
225
330
217
100
AcDbEntity
  8
DEFPOINTS
 62
     0
100
AcDbPoint
 10
211.2
 20
126.065
 30
0.0
  0
POINT
  5
226
330
217
100
AcDbEntity
  8
DEFPOINTS
 62
     0
100
AcDbPoint
 10
209.9
 20
126.065
 30
0.0
  0
ENDBLK
  5
219
330
217
100
AcDbEntity
  8
0
100
AcDbBlockEnd
  0
BLOCK
  5
228
330
227
100
AcDbEntity
  8
0
100
AcDbBlockBegin
  2
*D2537
 70
     1
 71
     0
 10
0.0
 20
0.0
 30
0.0
  3
*D2537
  1

  0
LINE
  5
22A
330
227
100
AcDbEntity
  8
新しいレイヤ_1
 62
     0
100
AcDbLine
 10
218.7
 20
128.815
 30
0.0
 11
202.5
 21
128.815
 31
0.0
  0
LINE
  5
22B
330
227
100
AcDbEntity
  8
新しいレイヤ_1
 62
     0
100
AcDbLine
 10
218.7
 20
122.315
 30
0.0
 11
202.5
 21
122.315
 31
0.0
  0
LINE
  5
22C
330
227
100
AcDbEntity
  8
新しいレイヤ_1
 62
     0
100
AcDbLine
 10
204.9999999999999
 20
132.1483333333333
 30
0.0
 11
204.9999999999999
 21
135.4816666666667
 31
0.0
  0
LINE
  5
22D
330
227
100
AcDbEntity
  8
新しいレイヤ_1
 62
     0
100
AcDbLine
 10
204.9999999999999
 20
118.9816666666667
 30
0.0
 11
204.9999999999999
 21
115.6483333333333
 31
0.0
  0
LINE
  5
22E
330
227
100
AcDbEntity
  8
新しいレイヤ_1
 62
     0
100
AcDbLine
 10
204.9999999999999
 20
128.815
 30
0.0
 11
204.9999999999999
 21
122.315
 31
0.0
  0
INSERT
  5
22F
330
227
100
AcDbEntity
  8
新しいレイヤ_1
 62
     0
100
AcDbBlockReference
  2
_OPEN30
 10
204.9999999999999
 20
128.815
 30
0.0
 41
3.333333333333334
 42
3.333333333333334
 43
3.333333333333334
 50
270.0
  0
INSERT
  5
231
330
227
100
AcDbEntity
  8
新しいレイヤ_1
 62
     0
100
AcDbBlockReference
  2
_OPEN30
 10
204.9999999999999
 20
122.315
 30
0.0
 41
3.333333333333334
 42
3.333333333333334
 43
3.333333333333334
 50
90.0
  0
MTEXT
  5
232
330
227
100
AcDbEntity
  8
新しいレイヤ_1
 62
     0
100
AcDbMText
 10
203.730458800217
 20
125.565
 30
0.0
 40
1.539082399565885
 41
0.0
 71
     5
 72
     1
  1
6.50
 11
0.0
 21
1.0
 31
0.0
  0
POINT
  5
233
330
227
100
AcDbEntity
  8
DEFPOINTS
 62
     0
100
AcDbPoint
 10
219.2
 20
128.815
 30
0.0
  0
POINT
  5
234
330
227
100
AcDbEntity
  8
DEFPOINTS
 62
     0
100
AcDbPoint
 10
219.2
 20
122.315
 30
0.0
  0
POINT
  5
235
330
227
100
AcDbEntity
  8
DEFPOINTS
 62
     0
100
AcDbPoint
 10
205.0
 20
122.315
 30
0.0
  0
ENDBLK
  5
229
330
227
100
AcDbEntity
  8
0
100
AcDbBlockEnd
  0
BLOCK
  5
237
330
236
100
AcDbEntity
  8
0
100
AcDbBlockBegin
  2
*D2638
 70
     1
 71
     0
 10
0.0
 20
0.0
 30
0.0
  3
*D2638
  1

  0
LINE
  5
239
330
236
100
AcDbEntity
  8
新しいレイヤ_1
 62
     0
100
AcDbLine
 10
211.2
 20
125.565
 30
0.0
 11
211.2
 21
115.88
 31
0.0
  0
LINE
  5
23A
330
236
100
AcDbEntity
  8
新しいレイヤ_1
 62
     0
100
AcDbLine
 10
219.2
 20
125.565
 30
0.0
 11
219.2
 21
115.88
 31
0.0
  0
LINE
  5
23B
330
236
100
AcDbEntity
  8
新しいレイヤ_1
 62
     0
100
AcDbLine
 10
214.5333333333333
 20
118.38
 30
0.0
 11
215.8666666666667
 21
118.38
 31
0.0
  0
INSERT
  5
23C
330
236
100
AcDbEntity
  8
新しいレイヤ_1
 62
     0
100
AcDbBlockReference
  2
_OPEN30
 10
211.2
 20
118.38
 30
0.0
 41
3.333333333333334
 42
3.333333333333334
 43
3.333333333333334
 50
180.0
  0
INSERT
  5
23D
330
236
100
AcDbEntity
  8
新しいレイヤ_1
 62
     0
100
AcDbBlockReference
  2
_OPEN30
 10
219.2
 20
118.38
 30
0.0
 41
3.333333333333334
 42
3.333333333333334
 43
3.333333333333334
  0
MTEXT
  5
23E
330
236
100
AcDbEntity
  8
新しいレイヤ_1
 62
     0
100
AcDbMText
 10
215.2
 20
119.6495411997829
 30
0.0
 40
1.539082399565885
 41
0.0
 71
     5
 72
     1
  1
8.00
  0
POINT
  5
240
330
236
100
AcDbEntity
  8
DEFPOINTS
 62
     0
100
AcDbPoint
 10
211.2
 20
126.065
 30
0.0
  0
POINT
  5
241
330
236
100
AcDbEntity
  8
DEFPOINTS
 62
     0
100
AcDbPoint
 10
219.2
 20
126.065
 30
0.0
  0
POINT
  5
242
330
236
100
AcDbEntity
  8
DEFPOINTS
 62
     0
100
AcDbPoint
 10
219.2
 20
118.38
 30
0.0
  0
ENDBLK
  5
238
330
236
100
AcDbEntity
  8
0
100
AcDbBlockEnd
  0
ENDSEC
  0
SECTION
  2
ENTITIES
  0
LINE
  5
74
330
1F
100
AcDbEntity
  8
新しいレイヤ_1
100
AcDbLine
 10
40.1
 20
150.0
 30
0.0
 11
381.3
 21
150.0
 31
0.0
  0
LINE
  5
75
330
1F
100
AcDbEntity
  8
新しいレイヤ_1
100
AcDbLine
 10
150.0
 20
233.95
 30
0.0
 11
150.0
 21
66.05
 31
0.0
  0
LINE
  5
76
330
1F
100
AcDbEntity
  8
新しいレイヤ_1
100
AcDbLine
 10
220.0
 20
235.05
 30
0.0
 11
220.0
 21
64.95
 31
0.0
  0
POLYLINE
  5
77
330
1F
100
AcDbEntity
  8
新しいレイヤ_1
100
AcDb2dPolyline
 66
     1
 10
0.0
 20
0.0
 30
0.0
  0
VERTEX
  5
78
330
77
100
AcDbEntity
  8
0
100
AcDbVertex
100
AcDb2dVertex
 10
118.25
 20
122.315
 30
0.0
  0
VERTEX
  5
79
330
77
100
AcDbEntity
  8
0
100
AcDbVertex
100
AcDb2dVertex
 10
181.75
 20
122.315
 30
0.0
  0
VERTEX
  5
7A
330
77
100
AcDbEntity
  8
0
100
AcDbVertex
100
AcDb2dVertex
 10
181.75
 20
177.685
 30
0.0
  0
VERTEX
  5
7B
330
77
100
AcDbEntity
  8
0
100
AcDbVertex
100
AcDb2dVertex
 10
118.25
 20
177.685
 30
0.0
  0
VERTEX
  5
7C
330
77
100
AcDbEntity
  8
0
100
AcDbVertex
100
AcDb2dVertex
 10
118.25
 20
122.315
 30
0.0
  0
SEQEND
  5
7D
330
77
100
AcDbEntity
  8
新しいレイヤ_1
  0
POLYLINE
  5
7E
330
1F
100
AcDbEntity
  8
新しいレイヤ_1
100
AcDb2dPolyline
 66
     1
 10
0.0
 20
0.0
 30
0.0
  0
VERTEX
  5
7F
330
7E
100
AcDbEntity
  8
0
100
AcDbVertex
100
AcDb2dVertex
 10
219.2
 20
122.315
 30
0.0
  0
VERTEX
  5
80
330
7E
100
AcDbEntity
  8
0
100
AcDbVertex
100
AcDb2dVertex
 10
220.8
 20
122.315
 30
0.0
  0
VERTEX
  5
81
330
7E
100
AcDbEntity
  8
0
100
AcDbVertex
100
AcDb2dVertex
 10
220.8
 20
177.685
 30
0.0
  0
VERTEX
  5
82
330
7E
100
AcDbEntity
  8
0
100
AcDbVertex
100
AcDb2dVertex
 10
219.2
 20
177.685
 30
0.0
  0
VERTEX
  5
83
330
7E
100
AcDbEntity
  8
0
100
AcDbVertex
100
AcDb2dVertex
 10
219.2
 20
122.315
 30
0.0
  0
SEQEND
  5
84
330
7E
100
AcDbEntity
  8
新しいレイヤ_1
  0
CIRCLE
  5
85
330
1F
100
AcDbEntity
  8
新しいレイヤ_1
100
AcDbCircle
 10
120.81
 20
175.125
 30
0.0
 40
1.4
  0
CIRCLE
  5
86
330
1F
100
AcDbEntity
  8
新しいレイヤ_1
100
AcDbCircle
 10
179.19
 20
175.125
 30
0.0
 40
1.4
  0
CIRCLE
  5
87
330
1F
100
AcDbEntity
  8
新しいレイヤ_1
100
AcDbCircle
 10
179.19
 20
124.875
 30
0.0
 40
1.4
  0
CIRCLE
  5
88
330
1F
100
AcDbEntity
  8
新しいレイヤ_1
100
AcDbCircle
 10
120.81
 20
124.875
 30
0.0
 40
1.4
  0
POLYLINE
  5
89
330
1F
100
AcDbEntity
  8
新しいレイヤ_1
100
AcDb2dPolyline
 66
     1
 10
0.0
 20
0.0
 30
0.0
  0
VERTEX
  5
8A
330
89
100
AcDbEntity
  8
0
100
AcDbVertex
100
AcDb2dVertex
 10
124.69
 20
177.685
 30
0.0
  0
VERTEX
  5
8B
330
89
100
AcDbEntity
  8
0
100
AcDbVertex
100
AcDb2dVertex
 10
169.69
 20
177.685
 30
0.0
  0
VERTEX
  5
8C
330
89
100
AcDbEntity
  8
0
100
AcDbVertex
100
AcDb2dVertex
 10
169.69
 20
180.685
 30
0.0
  0
VERTEX
  5
8D
330
89
100
AcDbEntity
  8
0
100
AcDbVertex
100
AcDb2dVertex
 10
124.69
 20
180.685
 30
0.0
  0
VERTEX
  5
8E
330
89
100
AcDbEntity
  8
0
100
AcDbVertex
100
AcDb2dVertex
 10
124.69
 20
177.685
 30
0.0
  0
SEQEND
  5
8F
330
89
100
AcDbEntity
  8
新しいレイヤ_1
  0
LINE
  5
90
330
1F
100
AcDbEntity
  8
新しいレイヤ_1
100
AcDbLine
 10
132.25
 20
174.935
 30
0.0
 11
132.25
 21
186.435
 31
0.0
  0
INSERT
  5
91
330
1F
100
AcDbEntity
  8
0
  6
CONTINUOUS
 62
   250
100
AcDbBlockReference
  2
__侃讃_皃1
 10
0.0
 20
0.0
 30
0.0
  0
LINE
  5
92
330
1F
100
AcDbEntity
  8
新しいレイヤ_1
100
AcDbLine
 10
141.75
 20
129.445
 30
0.0
 11
166.75
 21
129.445
 31
0.0
  0
LINE
  5
93
330
1F
100
AcDbEntity
  8
新しいレイヤ_1
100
AcDbLine
 10
166.75
 20
126.9
 30
0.0
 11
141.75
 21
126.9
 31
0.0
  0
LINE
  5
94
330
1F
100
AcDbEntity
  8
新しいレイヤ_1
100
AcDbLine
 10
143.65
 20
130.54
 30
0.0
 11
143.65
 21
125.115
 31
0.0
  0
LINE
  5
95
330
1F
100
AcDbEntity
  8
新しいレイヤ_1
100
AcDbLine
 10
163.97
 20
130.575
 30
0.0
 11
163.97
 21
124.76
 31
0.0
  0
CIRCLE
  5
96
330
1F
100
AcDbEntity
  8
新しいレイヤ_1
100
AcDbCircle
 10
148.73
 20
129.445
 30
0.0
 40
0.425
  0
CIRCLE
  5
97
330
1F
100
AcDbEntity
  8
新しいレイヤ_1
100
AcDbCircle
 10
143.65
 20
126.885
 30
0.0
 40
0.425
  0
CIRCLE
  5
98
330
1F
100
AcDbEntity
  8
新しいレイヤ_1
100
AcDbCircle
 10
163.97
 20
126.885
 30
0.0
 40
0.425
  0
CIRCLE
  5
99
330
1F
100
AcDbEntity
  8
新しいレイヤ_1
100
AcDbCircle
 10
151.29
 20
129.445
 30
0.0
 40
0.425
  0
CIRCLE
  5
9A
330
1F
100
AcDbEntity
  8
新しいレイヤ_1
100
AcDbCircle
 10
153.85
 20
129.445
 30
0.0
 40
0.425
  0
CIRCLE
  5
9B
330
1F
100
AcDbEntity
  8
新しいレイヤ_1
100
AcDbCircle
 10
156.41
 20
129.445
 30
0.0
 40
0.425
  0
CIRCLE
  5
9C
330
1F
100
AcDbEntity
  8
新しいレイヤ_1
100
AcDbCircle
 10
158.97
 20
129.445
 30
0.0
 40
0.425
  0
CIRCLE
  5
9D
330
1F
100
AcDbEntity
  8
新しいレイヤ_1
100
AcDbCircle
 10
161.53
 20
129.445
 30
0.0
 40
0.425
  0
CIRCLE
  5
9E
330
1F
100
AcDbEntity
  8
新しいレイヤ_1
100
AcDbCircle
 10
163.97
 20
129.445
 30
0.0
 40
0.425
  0
CIRCLE
  5
9F
330
1F
100
AcDbEntity
  8
新しいレイヤ_1
100
AcDbCircle
 10
146.21
 20
129.445
 30
0.0
 40
0.425
  0
CIRCLE
  5
A0
330
1F
100
AcDbEntity
  8
新しいレイヤ_1
100
AcDbCircle
 10
143.65
 20
129.445
 30
0.0
 40
0.425
  0
LINE
  5
A1
330
1F
100
AcDbEntity
  8
新しいレイヤ_1
100
AcDbLine
 10
161.53
 20
130.575
 30
0.0
 11
161.53
 21
124.76
 31
0.0
  0
LINE
  5
A2
330
1F
100
AcDbEntity
  8
新しいレイヤ_1
100
AcDbLine
 10
158.97
 20
130.575
 30
0.0
 11
158.97
 21
124.76
 31
0.0
  0
LINE
  5
A3
330
1F
100
AcDbEntity
  8
新しいレイヤ_1
100
AcDbLine
 10
156.41
 20
130.575
 30
0.0
 11
156.41
 21
124.76
 31
0.0
  0
LINE
  5
A4
330
1F
100
AcDbEntity
  8
新しいレイヤ_1
100
AcDbLine
 10
153.85
 20
130.575
 30
0.0
 11
153.85
 21
124.76
 31
0.0
  0
LINE
  5
A5
330
1F
100
AcDbEntity
  8
新しいレイヤ_1
100
AcDbLine
 10
151.29
 20
130.575
 30
0.0
 11
151.29
 21
124.76
 31
0.0
  0
LINE
  5
A6
330
1F
100
AcDbEntity
  8
新しいレイヤ_1
100
AcDbLine
 10
148.73
 20
130.575
 30
0.0
 11
148.73
 21
124.76
 31
0.0
  0
LINE
  5
A7
330
1F
100
AcDbEntity
  8
新しいレイヤ_1
100
AcDbLine
 10
146.21
 20
130.575
 30
0.0
 11
146.21
 21
124.76
 31
0.0
  0
CIRCLE
  5
A8
330
1F
100
AcDbEntity
  8
新しいレイヤ_1
100
AcDbCircle
 10
146.21
 20
126.885
 30
0.0
 40
0.425
  0
CIRCLE
  5
A9
330
1F
100
AcDbEntity
  8
新しいレイヤ_1
100
AcDbCircle
 10
148.73
 20
126.885
 30
0.0
 40
0.425
  0
CIRCLE
  5
AA
330
1F
100
AcDbEntity
  8
新しいレイヤ_1
100
AcDbCircle
 10
151.29
 20
126.885
 30
0.0
 40
0.425
  0
CIRCLE
  5
AB
330
1F
100
AcDbEntity
  8
新しいレイヤ_1
100
AcDbCircle
 10
153.85
 20
126.885
 30
0.0
 40
0.425
  0
CIRCLE
  5
AC
330
1F
100
AcDbEntity
  8
新しいレイヤ_1
100
AcDbCircle
 10
156.41
 20
126.885
 30
0.0
 40
0.425
  0
CIRCLE
  5
AD
330
1F
100
AcDbEntity
  8
新しいレイヤ_1
100
AcDbCircle
 10
158.97
 20
126.885
 30
0.0
 40
0.425
  0
CIRCLE
  5
AE
330
1F
100
AcDbEntity
  8
新しいレイヤ_1
100
AcDbCircle
 10
161.53
 20
126.885
 30
0.0
 40
0.425
  0
POLYLINE
  5
AF
330
1F
100
AcDbEntity
  8
新しいレイヤ_1
100
AcDb2dPolyline
 66
     1
 10
0.0
 20
0.0
 30
0.0
  0
VERTEX
  5
B0
330
AF
100
AcDbEntity
  8
0
100
AcDbVertex
100
AcDb2dVertex
 10
220.8
 20
140.685
 30
0.0
  0
VERTEX
  5
B1
330
AF
100
AcDbEntity
  8
0
100
AcDbVertex
100
AcDb2dVertex
 10
227.8
 20
140.685
 30
0.0
  0
VERTEX
  5
B2
330
AF
100
AcDbEntity
  8
0
100
AcDbVertex
100
AcDb2dVertex
 10
227.8
 20
180.685
 30
0.0
  0
VERTEX
  5
B3
330
AF
100
AcDbEntity
  8
0
100
AcDbVertex
100
AcDb2dVertex
 10
220.8
 20
180.685
 30
0.0
  0
VERTEX
  5
B4
330
AF
100
AcDbEntity
  8
0
100
AcDbVertex
100
AcDb2dVertex
 10
220.8
 20
140.685
 30
0.0
  0
SEQEND
  5
B5
330
AF
100
AcDbEntity
  8
新しいレイヤ_1
  0
POLYLINE
  5
B6
330
1F
100
AcDbEntity
  8
新しいレイヤ_1
100
AcDb2dPolyline
 66
     1
 10
0.0
 20
0.0
 30
0.0
  0
VERTEX
  5
B7
330
B6
100
AcDbEntity
  8
0
100
AcDbVertex
100
AcDb2dVertex
 10
169.85
 20
177.685
 30
0.0
  0
VERTEX
  5
B8
330
B6
100
AcDbEntity
  8
0
100
AcDbVertex
100
AcDb2dVertex
 10
174.85
 20
177.685
 30
0.0
  0
VERTEX
  5
B9
330
B6
100
AcDbEntity
  8
0
100
AcDbVertex
100
AcDb2dVertex
 10
174.85
 20
184.685
 30
0.0
  0
VERTEX
  5
BA
330
B6
100
AcDbEntity
  8
0
100
AcDbVertex
100
AcDb2dVertex
 10
169.85
 20
184.685
 30
0.0
  0
VERTEX
  5
BB
330
B6
100
AcDbEntity
  8
0
100
AcDbVertex
100
AcDb2dVertex
 10
169.85
 20
177.685
 30
0.0
  0
SEQEND
  5
BC
330
B6
100
AcDbEntity
  8
新しいレイヤ_1
  0
POLYLINE
  5
BD
330
1F
100
AcDbEntity
  8
新しいレイヤ_1
100
AcDb2dPolyline
 66
     1
 10
0.0
 20
0.0
 30
0.0
  0
VERTEX
  5
BE
330
BD
100
AcDbEntity
  8
0
100
AcDbVertex
100
AcDb2dVertex
 10
222.8
 20
180.685
 30
0.0
  0
VERTEX
  5
BF
330
BD
100
AcDbEntity
  8
0
100
AcDbVertex
100
AcDb2dVertex
 10
227.8
 20
180.685
 30
0.0
  0
VERTEX
  5
C0
330
BD
100
AcDbEntity
  8
0
100
AcDbVertex
100
AcDb2dVertex
 10
227.8
 20
184.685
 30
0.0
  0
VERTEX
  5
C1
330
BD
100
AcDbEntity
  8
0
100
AcDbVertex
100
AcDb2dVertex
 10
222.8
 20
184.685
 30
0.0
  0
VERTEX
  5
C2
330
BD
100
AcDbEntity
  8
0
100
AcDbVertex
100
AcDb2dVertex
 10
222.8
 20
180.685
 30
0.0
  0
SEQEND
  5
C3
330
BD
100
AcDbEntity
  8
新しいレイヤ_1
  0
INSERT
  5
C4
330
1F
100
AcDbEntity
  8
0
  6
CONTINUOUS
 62
   250
100
AcDbBlockReference
  2
__侃讃_皃2
 10
0.0
 20
0.0
 30
0.0
  0
LINE
  5
C5
330
1F
100
AcDbEntity
  8
新しいレイヤ_1
100
AcDbLine
 10
217.2
 20
176.185
 30
0.0
 11
217.2
 21
185.185
 31
0.0
  0
DIMENSION
  5
CD
330
1F
100
AcDbEntity
  8
新しいレイヤ_1
  6
CONTINUOUS
100
AcDbDimension
  2
*D113
 10
194.3
 20
122.315
 30
0.0
 11
195.569541199783
 21
150.0
 31
0.0
 70
    32
  3
STANDARD
100
AcDbAlignedDimension
 13
181.75
 23
177.685
 33
0.0
 14
181.75
 24
122.315
 34
0.0
 50
90.0
100
AcDbRotatedDimension
1001
ACAD
1000
DSTYLE
1002
{
1070
     5
1000
OPEN30
1070
    41
1040
3.333333333333334
1070
   271
1070
     2
1070
    44
1040
2.5
1070
    42
1040
0.5
1070
   147
1040
0.5
1070
    77
1070
     1
1070
   272
1070
     2
1070
   146
1040
0.5
1070
    73
1070
     0
1070
   283
1070
     0
1070
   140
1040
1.539082399565885
1002
}
  0
DIMENSION
  5
DB
330
1F
100
AcDbEntity
  8
新しいレイヤ_1
  6
CONTINUOUS
100
AcDbDimension
  2
*D214
 10
181.75
 20
108.2
 30
0.0
 11
150.0
 21
109.4695411997829
 31
0.0
 70
    32
  3
STANDARD
100
AcDbAlignedDimension
 13
118.25
 23
122.315
 33
0.0
 14
181.75
 24
122.315
 34
0.0
100
AcDbRotatedDimension
1001
ACAD
1000
DSTYLE
1002
{
1070
     5
1000
OPEN30
1070
    41
1040
3.333333333333334
1070
   271
1070
     2
1070
    44
1040
2.5
1070
    42
1040
0.5
1070
   147
1040
0.5
1070
    77
1070
     1
1070
   272
1070
     2
1070
   146
1040
0.5
1070
    73
1070
     0
1070
   283
1070
     0
1070
   140
1040
1.539082399565885
1002
}
  0
DIMENSION
  5
E8
330
1F
100
AcDbEntity
  8
新しいレイヤ_1
  6
CONTINUOUS
100
AcDbDimension
  2
*D315
 10
179.19
 20
111.9
 30
0.0
 11
150.0
 21
113.169541199783
 31
0.0
 70
    32
  3
STANDARD
100
AcDbAlignedDimension
 13
120.81
 23
124.875
 33
0.0
 14
179.19
 24
124.875
 34
0.0
100
AcDbRotatedDimension
1001
ACAD
1000
DSTYLE
1002
{
1070
     5
1000
OPEN30
1070
    41
1040
3.333333333333334
1070
   271
1070
     2
1070
    44
1040
2.5
1070
    42
1040
0.5
1070
   147
1040
0.5
1070
    77
1070
     1
1070
   272
1070
     2
1070
   146
1040
0.5
1070
    73
1070
     0
1070
   283
1070
     0
1070
   140
1040
1.539082399565885
1002
}
  0
DIMENSION
  5
F5
330
1F
100
AcDbEntity
  8
新しいレイヤ_1
  6
CONTINUOUS
100
AcDbDimension
  2
*D416
 10
191.3
 20
124.875
 30
0.0
 11
192.569541199783
 21
150.0
 31
0.0
 70
    32
  3
STANDARD
100
AcDbAlignedDimension
 13
179.19
 23
175.125
 33
0.0
 14
179.19
 24
124.875
 34
0.0
 50
90.0
100
AcDbRotatedDimension
1001
ACAD
1000
DSTYLE
1002
{
1070
     5
1000
OPEN30
1070
    41
1040
3.333333333333334
1070
   271
1070
     2
1070
    44
1040
2.5
1070
    42
1040
0.5
1070
   147
1040
0.5
1070
    77
1070
     1
1070
   272
1070
     2
1070
   146
1040
0.5
1070
    73
1070
     0
1070
   283
1070
     0
1070
   140
1040
1.539082399565885
1002
}
  0
DIMENSION
  5
104
330
1F
100
AcDbEntity
  8
新しいレイヤ_1
  6
CONTINUOUS
100
AcDbDimension
  2
*D517
 10
185.8875
 20
177.685
 30
0.0
 11
187.1570411997829
 21
181.185
 31
0.0
 70
    32
  3
STANDARD
100
AcDbAlignedDimension
 13
174.85
 23
184.685
 33
0.0
 14
174.85
 24
177.685
 34
0.0
 50
90.0
100
AcDbRotatedDimension
1001
ACAD
1000
DSTYLE
1002
{
1070
     5
1000
OPEN30
1070
    41
1040
3.333333333333334
1070
   271
1070
     2
1070
    44
1040
2.5
1070
    42
1040
0.5
1070
   147
1040
0.5
1070
    77
1070
     1
1070
   272
1070
     2
1070
   146
1040
0.5
1070
    73
1070
     0
1070
   283
1070
     0
1070
   140
1040
1.539082399565885
1002
}
  0
DIMENSION
  5
113
330
1F
100
AcDbEntity
  8
新しいレイヤ_1
  6
CONTINUOUS
100
AcDbDimension
  2
*D618
 10
169.85
 20
188.3
 30
0.0
 11
157.0047315816139
 21
188.3
 31
0.0
 70
    32
  3
STANDARD
100
AcDbAlignedDimension
 13
174.85
 23
184.685
 33
0.0
 14
169.85
 24
184.685
 34
0.0
100
AcDbRotatedDimension
1001
ACAD
1000
DSTYLE
1002
{
1070
     5
1000
OPEN30
1070
    41
1040
3.333333333333334
1070
   271
1070
     2
1070
    44
1040
2.5
1070
    42
1040
0.5
1070
   147
1040
0.5
1070
    77
1070
     1
1070
   272
1070
     2
1070
   146
1040
0.5
1070
    73
1070
     0
1070
   283
1070
     0
1070
   140
1040
1.539082399565885
1002
}
  0
DIMENSION
  5
122
330
1F
100
AcDbEntity
  8
新しいレイヤ_1
  6
CONTINUOUS
100
AcDbDimension
  2
*D719
 10
130.75
 20
190.7
 30
0.0
 11
117.9047315816139
 21
190.7
 31
0.0
 70
    32
  3
STANDARD
100
AcDbAlignedDimension
 13
133.75
 23
178.0
 33
0.0
 14
130.75
 24
178.0
 34
0.0
100
AcDbRotatedDimension
1001
ACAD
1000
DSTYLE
1002
{
1070
     5
1000
OPEN30
1070
    41
1040
3.333333333333334
1070
   271
1070
     2
1070
    44
1040
2.5
1070
    42
1040
0.5
1070
   147
1040
0.5
1070
    77
1070
     1
1070
   272
1070
     2
1070
   146
1040
0.5
1070
    73
1070
     0
1070
   283
1070
     0
1070
   140
1040
1.539082399565885
1002
}
  0
DIMENSION
  5
12F
330
1F
100
AcDbEntity
  8
新しいレイヤ_1
  6
CONTINUOUS
100
AcDbDimension
  2
*D820
 10
118.25
 20
184.8
 30
0.0
 11
125.25
 21
186.069541199783
 31
0.0
 70
    32
  3
STANDARD
100
AcDbAlignedDimension
 13
132.25
 23
174.935
 33
0.0
 14
118.25
 24
177.685
 34
0.0
100
AcDbRotatedDimension
1001
ACAD
1000
DSTYLE
1002
{
1070
     5
1000
OPEN30
1070
    41
1040
3.333333333333334
1070
   271
1070
     2
1070
    44
1040
2.5
1070
    42
1040
0.5
1070
   147
1040
0.5
1070
    77
1070
     1
1070
   272
1070
     2
1070
   146
1040
0.5
1070
    73
1070
     0
1070
   283
1070
     0
1070
   140
1040
1.539082399565885
1002
}
  0
LINE
  5
135
330
1F
100
AcDbEntity
  8
新しいレイヤ_1
100
AcDbLine
 10
172.35
 20
186.27
 30
0.0
 11
172.35
 21
174.185
 31
0.0
  0
DIMENSION
  5
13F
330
1F
100
AcDbEntity
  8
新しいレイヤ_1
  6
CONTINUOUS
100
AcDbDimension
  2
*D921
 10
123.4
 20
177.685
 30
0.0
 11
118.7971254668837
 21
171.0183333333334
 31
0.0
 70
    32
  3
STANDARD
100
AcDbAlignedDimension
 13
124.69
 23
180.685
 33
0.0
 14
124.69
 24
177.685
 34
0.0
 50
90.0
100
AcDbRotatedDimension
1001
ACAD
1000
DSTYLE
1002
{
1070
     5
1000
OPEN30
1070
    41
1040
3.333333333333334
1070
   271
1070
     2
1070
    44
1040
2.5
1070
    42
1040
0.5
1070
   147
1040
0.5
1070
    77
1070
     1
1070
   272
1070
     2
1070
   146
1040
0.5
1070
    73
1070
     0
1070
   283
1070
     0
1070
   140
1040
1.539082399565885
1002
}
  0
DIMENSION
  5
14F
330
1F
100
AcDbEntity
  8
新しいレイヤ_1
  6
CONTINUOUS
100
AcDbDimension
  2
*D1022
 10
181.75
 20
169.7
 30
0.0
 11
177.05
 21
170.9695411997829
 31
0.0
 70
    32
  3
STANDARD
100
AcDbAlignedDimension
 13
172.35
 23
177.685
 33
0.0
 14
181.75
 24
177.685
 34
0.0
100
AcDbRotatedDimension
1001
ACAD
1000
DSTYLE
1002
{
1070
     5
1000
OPEN30
1070
    41
1040
3.333333333333334
1070
   271
1070
     2
1070
    44
1040
2.5
1070
    42
1040
0.5
1070
   147
1040
0.5
1070
    77
1070
     1
1070
   272
1070
     2
1070
   146
1040
0.5
1070
    73
1070
     0
1070
   283
1070
     0
1070
   140
1040
1.539082399565885
1002
}
  0
DIMENSION
  5
15A
330
1F
100
AcDbEntity
  8
新しいレイヤ_1
  6
CONTINUOUS
100
AcDbDimension
  2
*D1123
 10
150.0
 20
172.1
 30
0.0
 11
137.345
 21
173.3695411997829
 31
0.0
 70
    32
  3
STANDARD
100
AcDbAlignedDimension
 13
124.69
 23
180.685
 33
0.0
 14
150.0
 24
180.685
 34
0.0
100
AcDbRotatedDimension
1001
ACAD
1000
DSTYLE
1002
{
1070
     5
1000
OPEN30
1070
    41
1040
3.333333333333334
1070
   271
1070
     2
1070
    44
1040
2.5
1070
    42
1040
0.5
1070
   147
1040
0.5
1070
    77
1070
     1
1070
   272
1070
     2
1070
   146
1040
0.5
1070
    73
1070
     0
1070
   283
1070
     0
1070
   140
1040
1.539082399565885
1002
}
  0
DIMENSION
  5
167
330
1F
100
AcDbEntity
  8
新しいレイヤ_1
  6
CONTINUOUS
100
AcDbDimension
  2
*D1224
 10
169.69
 20
172.0
 30
0.0
 11
159.845
 21
173.269541199783
 31
0.0
 70
    32
  3
STANDARD
100
AcDbAlignedDimension
 13
150.0
 23
180.685
 33
0.0
 14
169.69
 24
180.685
 34
0.0
100
AcDbRotatedDimension
1001
ACAD
1000
DSTYLE
1002
{
1070
     5
1000
OPEN30
1070
    41
1040
3.333333333333334
1070
   271
1070
     2
1070
    44
1040
2.5
1070
    42
1040
0.5
1070
   147
1040
0.5
1070
    77
1070
     1
1070
   272
1070
     2
1070
   146
1040
0.5
1070
    73
1070
     0
1070
   283
1070
     0
1070
   140
1040
1.539082399565885
1002
}
  0
DIMENSION
  5
176
330
1F
100
AcDbEntity
  8
新しいレイヤ_1
  6
CONTINUOUS
100
AcDbDimension
  2
*D1325
 10
129.2
 20
122.315
 30
0.0
 11
124.5971254668837
 21
115.6483333333333
 31
0.0
 70
    32
  3
STANDARD
100
AcDbAlignedDimension
 13
150.0
 23
126.885
 33
0.0
 14
150.0
 24
122.315
 34
0.0
 50
90.0
100
AcDbRotatedDimension
1001
ACAD
1000
DSTYLE
1002
{
1070
     5
1000
OPEN30
1070
    41
1040
3.333333333333334
1070
   271
1070
     2
1070
    44
1040
2.5
1070
    42
1040
0.5
1070
   147
1040
0.5
1070
    77
1070
     1
1070
   272
1070
     2
1070
   146
1040
0.5
1070
    73
1070
     0
1070
   283
1070
     0
1070
   140
1040
1.539082399565885
1002
}
  0
DIMENSION
  5
186
330
1F
100
AcDbEntity
  8
新しいレイヤ_1
  6
CONTINUOUS
100
AcDbDimension
  2
*D1426
 10
137.81
 20
126.9
 30
0.0
 11
133.2071254668838
 21
120.2333333333333
 31
0.0
 70
    32
  3
STANDARD
100
AcDbAlignedDimension
 13
143.65
 23
129.445
 33
0.0
 14
143.65
 24
126.9
 34
0.0
 50
90.0
100
AcDbRotatedDimension
1001
ACAD
1000
DSTYLE
1002
{
1070
     5
1000
OPEN30
1070
    41
1040
3.333333333333334
1070
   271
1070
     2
1070
    44
1040
2.5
1070
    42
1040
0.5
1070
   147
1040
0.5
1070
    77
1070
     1
1070
   272
1070
     2
1070
   146
1040
0.5
1070
    73
1070
     0
1070
   283
1070
     0
1070
   140
1040
1.539082399565885
1002
}
  0
DIMENSION
  5
194
330
1F
100
AcDbEntity
  8
新しいレイヤ_1
  6
CONTINUOUS
100
AcDbDimension
  2
*D1527
 10
121.7999494936612
 20
125.8649494936612
 30
0.0
 11
109.5568398282202
 21
115.7431601717799
 31
0.0
 70
   163
  3
STANDARD
100
AcDbDiametricDimension
 15
119.8200505063388
 25
123.8850505063388
 35
0.0
 40
0.0
1001
ACAD
1000
DSTYLE
1002
{
1070
     5
1000
OPEN30
1070
    41
1040
3.333333333333334
1070
   271
1070
     2
1070
   147
1040
0.5
1070
    77
1070
     1
1070
   272
1070
     2
1070
   146
1040
0.5
1070
    73
1070
     0
1070
   283
1070
     0
1070
   140
1040
1.539082399565885
1002
}
  0
DIMENSION
  5
1A2
330
1F
100
AcDbEntity
  8
新しいレイヤ_1
  6
CONTINUOUS
100
AcDbDimension
  2
*D1628
 10
220.8
 20
106.7
 30
0.0
 11
233.5353339612742
 21
106.7
 31
0.0
 70
    32
  3
STANDARD
100
AcDbAlignedDimension
 13
219.2
 23
122.315
 33
0.0
 14
220.8
 24
122.315
 34
0.0
100
AcDbRotatedDimension
1001
ACAD
1000
DSTYLE
1002
{
1070
     5
1000
OPEN30
1070
    41
1040
3.333333333333334
1070
   271
1070
     2
1070
    44
1040
2.5
1070
    42
1040
0.5
1070
   147
1040
0.5
1070
    77
1070
     1
1070
   272
1070
     2
1070
   146
1040
0.5
1070
    73
1070
     0
1070
   283
1070
     0
1070
   140
1040
1.539082399565885
1002
}
  0
DIMENSION
  5
1B1
330
1F
100
AcDbEntity
  8
新しいレイヤ_1
  6
CONTINUOUS
100
AcDbDimension
  2
*D1729
 10
220.8
 20
131.9
 30
0.0
 11
224.3
 21
133.1695411997829
 31
0.0
 70
    32
  3
STANDARD
100
AcDbAlignedDimension
 13
227.8
 23
140.685
 33
0.0
 14
220.8
 24
140.685
 34
0.0
100
AcDbRotatedDimension
1001
ACAD
1000
DSTYLE
1002
{
1070
     5
1000
OPEN30
1070
    41
1040
3.333333333333334
1070
   271
1070
     2
1070
    44
1040
2.5
1070
    42
1040
0.5
1070
   147
1040
0.5
1070
    77
1070
     1
1070
   272
1070
     2
1070
   146
1040
0.5
1070
    73
1070
     0
1070
   283
1070
     0
1070
   140
1040
1.539082399565885
1002
}
  0
DIMENSION
  5
1BE
330
1F
100
AcDbEntity
  8
新しいレイヤ_1
  6
CONTINUOUS
100
AcDbDimension
  2
*D1830
 10
236.1
 20
140.685
 30
0.0
 11
237.369541199783
 21
160.685
 31
0.0
 70
    32
  3
STANDARD
100
AcDbAlignedDimension
 13
227.8
 23
180.685
 33
0.0
 14
227.8
 24
140.685
 34
0.0
 50
90.0
100
AcDbRotatedDimension
1001
ACAD
1000
DSTYLE
1002
{
1070
     5
1000
OPEN30
1070
    41
1040
3.333333333333334
1070
   271
1070
     2
1070
    44
1040
2.5
1070
    42
1040
0.5
1070
   147
1040
0.5
1070
    77
1070
     1
1070
   272
1070
     2
1070
   146
1040
0.5
1070
    73
1070
     0
1070
   283
1070
     0
1070
   140
1040
1.539082399565885
1002
}
  0
DIMENSION
  5
1CD
330
1F
100
AcDbEntity
  8
新しいレイヤ_1
  6
CONTINUOUS
100
AcDbDimension
  2
*D1931
 10
227.8
 20
190.3
 30
0.0
 11
240.6452684183861
 21
190.3
 31
0.0
 70
    32
  3
STANDARD
100
AcDbAlignedDimension
 13
222.8
 23
184.685
 33
0.0
 14
227.8
 24
184.685
 34
0.0
100
AcDbRotatedDimension
1001
ACAD
1000
DSTYLE
1002
{
1070
     5
1000
OPEN30
1070
    41
1040
3.333333333333334
1070
   271
1070
     2
1070
    44
1040
2.5
1070
    42
1040
0.5
1070
   147
1040
0.5
1070
    77
1070
     1
1070
   272
1070
     2
1070
   146
1040
0.5
1070
    73
1070
     0
1070
   283
1070
     0
1070
   140
1040
1.539082399565885
1002
}
  0
DIMENSION
  5
1DC
330
1F
100
AcDbEntity
  8
新しいレイヤ_1
  6
CONTINUOUS
100
AcDbDimension
  2
*D2032
 10
217.2
 20
170.8
 30
0.0
 11
204.3547315816139
 21
170.8
 31
0.0
 70
    32
  3
STANDARD
100
AcDbAlignedDimension
 13
220.0
 23
177.685
 33
0.0
 14
217.2
 24
178.0
 34
0.0
100
AcDbRotatedDimension
1001
ACAD
1000
DSTYLE
1002
{
1070
     5
1000
OPEN30
1070
    41
1040
3.333333333333334
1070
   271
1070
     2
1070
    44
1040
2.5
1070
    42
1040
0.5
1070
   147
1040
0.5
1070
    77
1070
     1
1070
   272
1070
     2
1070
   146
1040
0.5
1070
    73
1070
     0
1070
   283
1070
     0
1070
   140
1040
1.539082399565885
1002
}
  0
DIMENSION
  5
1EB
330
1F
100
AcDbEntity
  8
新しいレイヤ_1
  6
CONTINUOUS
100
AcDbDimension
  2
*D2133
 10
232.2
 20
180.685
 30
0.0
 11
227.5971254668837
 21
174.0183333333334
 31
0.0
 70
    32
  3
STANDARD
100
AcDbAlignedDimension
 13
227.8
 23
184.685
 33
0.0
 14
227.8
 24
180.685
 34
0.0
 50
90.0
100
AcDbRotatedDimension
1001
ACAD
1000
DSTYLE
1002
{
1070
     5
1000
OPEN30
1070
    41
1040
3.333333333333334
1070
   271
1070
     2
1070
    44
1040
2.5
1070
    42
1040
0.5
1070
   147
1040
0.5
1070
    77
1070
     1
1070
   272
1070
     2
1070
   146
1040
0.5
1070
    73
1070
     0
1070
   283
1070
     0
1070
   140
1040
1.539082399565885
1002
}
  0
DIMENSION
  5
1FB
330
1F
100
AcDbEntity
  8
新しいレイヤ_1
  6
CONTINUOUS
100
AcDbDimension
  2
*D2234
 10
150.0
 20
118.4
 30
0.0
 11
146.825
 21
119.669541199783
 31
0.0
 70
    32
  3
STANDARD
100
AcDbAlignedDimension
 13
143.65
 23
126.9
 33
0.0
 14
150.0
 24
122.315
 34
0.0
100
AcDbRotatedDimension
1001
ACAD
1000
DSTYLE
1002
{
1070
     5
1000
OPEN30
1070
    41
1040
3.333333333333334
1070
   271
1070
     2
1070
    44
1040
2.5
1070
    42
1040
0.5
1070
   147
1040
0.5
1070
    77
1070
     1
1070
   272
1070
     2
1070
   146
1040
0.5
1070
    73
1070
     0
1070
   283
1070
     0
1070
   140
1040
1.539082399565885
1002
}
  0
DIMENSION
  5
208
330
1F
100
AcDbEntity
  8
新しいレイヤ_1
  6
CONTINUOUS
100
AcDbDimension
  2
*D2335
 10
150.0
 20
118.4
 30
0.0
 11
156.985
 21
119.669541199783
 31
0.0
 70
    32
  3
STANDARD
100
AcDbAlignedDimension
 13
163.97
 23
126.9
 33
0.0
 14
150.0
 24
122.315
 34
0.0
100
AcDbRotatedDimension
1001
ACAD
1000
DSTYLE
1002
{
1070
     5
1000
OPEN30
1070
    41
1040
3.333333333333334
1070
   271
1070
     2
1070
    44
1040
2.5
1070
    42
1040
0.5
1070
   147
1040
0.5
1070
    77
1070
     1
1070
   272
1070
     2
1070
   146
1040
0.5
1070
    73
1070
     0
1070
   283
1070
     0
1070
   140
1040
1.539082399565885
1002
}
  0
POLYLINE
  5
20E
330
1F
100
AcDbEntity
  8
新しいレイヤ_1
100
AcDb2dPolyline
 66
     1
 10
0.0
 20
0.0
 30
0.0
  0
VERTEX
  5
20F
330
20E
100
AcDbEntity
  8
0
100
AcDbVertex
100
AcDb2dVertex
 10
211.2
 20
126.065
 30
0.0
  0
VERTEX
  5
210
330
20E
100
AcDbEntity
  8
0
100
AcDbVertex
100
AcDb2dVertex
 10
219.2
 20
126.065
 30
0.0
  0
VERTEX
  5
211
330
20E
100
AcDbEntity
  8
0
100
AcDbVertex
100
AcDb2dVertex
 10
219.2
 20
131.565
 30
0.0
  0
VERTEX
  5
212
330
20E
100
AcDbEntity
  8
0
100
AcDbVertex
100
AcDb2dVertex
 10
211.2
 20
131.565
 30
0.0
  0
VERTEX
  5
213
330
20E
100
AcDbEntity
  8
0
100
AcDbVertex
100
AcDb2dVertex
 10
211.2
 20
126.065
 30
0.0
  0
SEQEND
  5
214
330
20E
100
AcDbEntity
  8
新しいレイヤ_1
  0
LINE
  5
215
330
1F
100
AcDbEntity
  8
新しいレイヤ_1
100
AcDbLine
 10
207.02
 20
128.815
 30
0.0
 11
224.12
 21
128.815
 31
0.0
  0
LINE
  5
216
330
1F
100
AcDbEntity
  8
新しいレイヤ_1
100
AcDbLine
 10
220.8
 20
122.315
 30
0.0
 11
205.0
 21
122.315
 31
0.0
  0
DIMENSION
  5
220
330
1F
100
AcDbEntity
  8
新しいレイヤ_1
  6
CONTINUOUS
100
AcDbDimension
  2
*D2436
 10
209.9
 20
126.065
 30
0.0
 11
205.2971254668837
 21
119.3983333333333
 31
0.0
 70
    32
  3
STANDARD
100
AcDbAlignedDimension
 13
211.2
 23
131.565
 33
0.0
 14
211.2
 24
126.065
 34
0.0
 50
90.0
100
AcDbRotatedDimension
1001
ACAD
1000
DSTYLE
1002
{
1070
     5
1000
OPEN30
1070
    41
1040
3.333333333333334
1070
   271
1070
     2
1070
    44
1040
2.5
1070
    42
1040
0.5
1070
   147
1040
0.5
1070
    77
1070
     1
1070
   272
1070
     2
1070
   146
1040
0.5
1070
    73
1070
     0
1070
   283
1070
     0
1070
   140
1040
1.539082399565885
1002
}
  0
DIMENSION
  5
230
330
1F
100
AcDbEntity
  8
新しいレイヤ_1
  6
CONTINUOUS
100
AcDbDimension
  2
*D2537
 10
205.0
 20
122.315
 30
0.0
 11
203.730458800217
 21
125.565
 31
0.0
 70
    32
  3
STANDARD
100
AcDbAlignedDimension
 13
219.2
 23
128.815
 33
0.0
 14
219.2
 24
122.315
 34
0.0
 50
90.0
100
AcDbRotatedDimension
1001
ACAD
1000
DSTYLE
1002
{
1070
     5
1000
OPEN30
1070
    41
1040
3.333333333333334
1070
   271
1070
     2
1070
    44
1040
2.5
1070
    42
1040
0.5
1070
   147
1040
0.5
1070
    77
1070
     1
1070
   272
1070
     2
1070
   146
1040
0.5
1070
    73
1070
     0
1070
   283
1070
     0
1070
   140
1040
1.539082399565885
1002
}
  0
DIMENSION
  5
23F
330
1F
100
AcDbEntity
  8
新しいレイヤ_1
  6
CONTINUOUS
100
AcDbDimension
  2
*D2638
 10
219.2
 20
118.38
 30
0.0
 11
215.2
 21
119.6495411997829
 31
0.0
 70
    32
  3
STANDARD
100
AcDbAlignedDimension
 13
211.2
 23
126.065
 33
0.0
 14
219.2
 24
126.065
 34
0.0
100
AcDbRotatedDimension
1001
ACAD
1000
DSTYLE
1002
{
1070
     5
1000
OPEN30
1070
    41
1040
3.333333333333334
1070
   271
1070
     2
1070
    44
1040
2.5
1070
    42
1040
0.5
1070
   147
1040
0.5
1070
    77
1070
     1
1070
   272
1070
     2
1070
   146
1040
0.5
1070
    73
1070
     0
1070
   283
1070
     0
1070
   140
1040
1.539082399565885
1002
}
  0
ENDSEC
  0
SECTION
  2
OBJECTS
  0
DICTIONARY
  5
C
330
0
100
AcDbDictionary
  3
ACAD_GROUP
350
D
  3
ACAD_LAYOUT
350
1A
  3
ACAD_MLINESTYLE
350
17
  3
ACAD_PLOTSETTINGS
350
19
1001
ACAD
1000
TREAT_AS_HARD
1070
     0
  0
DICTIONARY
  5
246
330
29
100
AcDbDictionary
  3
ACAD_XREC_ROUNDTRIP
360
247
  0
DICTIONARY
  5
D
102
{ACAD_REACTORS
330
C
102
}
330
C
100
AcDbDictionary
1001
ACAD
1000
TREAT_AS_HARD
1070
     0
  0
DICTIONARY
  5
1A
102
{ACAD_REACTORS
330
C
102
}
330
C
100
AcDbDictionary
1001
ACAD
1000
TREAT_AS_HARD
1070
     0
  0
DICTIONARY
  5
17
102
{ACAD_REACTORS
330
C
102
}
330
C
100
AcDbDictionary
  3
STANDARD
350
18
1001
ACAD
1000
TREAT_AS_HARD
1070
     0
  0
DICTIONARY
  5
19
102
{ACAD_REACTORS
330
C
102
}
330
C
100
AcDbDictionary
1001
ACAD
1000
TREAT_AS_HARD
1070
     0
  0
XRECORD
  5
247
102
{ACAD_REACTORS
330
246
102
}
330
246
100
AcDbXrecord
102
UCS
 74
     0
 71
     1
 10
0.0
 20
0.0
 30
0.0
 10
1.0
 20
0.0
 30
0.0
 10
0.0
 20
1.0
 30
0.0
146
0.0
 79
     0
102
VIEW
281
     0
  0
MLINESTYLE
  5
18
102
{ACAD_REACTORS
330
17
102
}
330
17
100
AcDbMlineStyle
  2
Standard
 70
     0
  3

 62
   256
 51
90.0
 52
90.0
 71
     2
 49
0.5
 62
   256
  6
BYLAYER
 49
-0.5
 62
   256
  6
BYLAYER
  0
ENDSEC
  0
EOF
